вход на сайт

Имя пользователя :
Пароль :

Восстановление пароля Регистрация
Степанова памятка (Константин Ершов, фэнтези, 1976) [DVDRip, Не требуется]
Рейтинг:
(голосов: 1)



[img]{THEME}/images/logopost.png[/img]



Степанова памятка

Год выпуска: 1976
Страна: СССР
Производство: Ленфильм
Жанр: фэнтези

Режиссёр: Константин Ершов
В ролях: Лариса Чикурова, Геннадий Егоров, Ирина Губанова, Наталья Андрейченко, Игорь Костолевский, Лев Круглый, Виктор Чекмарев, Игорь Ефимов, Михаил Светин, Борис Аракелов

Перевод: Не требуется
Субтитры: Отсутствуют

Описание:
О талантливом рудознатце Степане, его любви к хозяйке Медной горы, открывшей перед Степаном мир «души камня». Эта любовь преобразила и погубила его. Но «Степанова памятка» — дочь мастера Танюша унаследовала от отца гордый характер, талант и упорство. Девушка с молодым барином Турчаниновым поехала в Петербург, чтобы увидеть Малахитовую Комнату — и выполнить, тем самым, завет отца.


Дополнительно:
MediaInfo ▼Text
Общее
Полное имя :J:Степанова памяткаStepanova pamyatka.1976.avi
Формат :AVI
Размер :1.03 GiB
Продолжительность :01:20:12.440
Общий поток :1 837 Kbps
Программа кодирования :VirtualDubMod 1.5.4.1 (build 2178/release)
Библиотека кодирования :VirtualDub build 32559/release

Видео
Идентификатор :0
Формат :MPEG-4 Visual
Профиль формата :Advanced [email protected]
Параметр BVOP формата :1
Параметр Qpel формата :No
Параметр GMC формата :0
Параметр Matrix формата :Custom
Идентификатор кодека :XVID
Продолжительность :1h 20mn 12s 440ms
Битрейт :1 699 Kbps
Ширина :704 pixels
Высота :528 pixels
Соотношение сторон :1.333
Частота кадров :25.000 fps
Глубина цвета :8 bits
Подвыборка цветности :4:2:0
Цветовое пространство :YUV
Тип развертки :Progressive
Бит/(Пиксели*Кадры) :0.183
Размер потока :975 MiB (93%)
Библиотека кодирования :XviD0050

Аудио #1
Идентификатор :1
Формат :MPEG Audio
Идентификатор кодека :55
Продолжительность :01:20:12.432
Вид битрейта :Constant
Битрейт :128 Kbps
Канал(ы) :2 channels
Частота :48.0 KHz
Метод сжатия :Lossy
Размер потока :73.4 MiB (7%)



Тех. данные:
Качество:DVDRip
Продолжительность:01:20:10 час
0b95325c8aa9dfaed354a58052cefd7912819bcfСтепанова памятка (Константин Ершов, фэнтези, 1976) [DVDRip, Не требуется] Степанова памятка (Константин Ершов, фэнтези, 1976) [DVDRip, Не требуется] " />

Аплоадер: Админ, дата: 27-12-2012, 23:18, торрент скачан: 359 раз

Понравилась раздача? Посмотрите эти:
  • Подранки (Николай Губенко, драма, 1976) [DVDRip, Не требуется]
  • Человек, которому везло (Константин Ершов, драма, 1978) [DVDRip, Не требует ...
  • Мир дому твоему (2 части из 2) (Константин Райкин, Аркадий Райкин, Марк Орл ...
  • Дневной поезд (Инесса Селезнева, драма, 1976) [DVDRip, Не требуется]
  • Деревня Утка (Борис Бунеев, семейный, 1976) [DVDRip, Не требуется]
  • Дамы и гусары (Анатолий Ниточкин, Александра Ремизова, комедия, 1976) [DVDR ...
  • Иван да Марья (Борис Рыцарев, фэнтези, мелодрама, комедия, семейный, музыка ...
  • Опекун (Эдгар Ходжикян, Альберт С. Мкртчян, комедия, 1970) [DVDRip, Не треб ...
  • Мама (Элизабета Бостан, мюзикл, фэнтези, семейный, 1976) [DVDRip, Не требуе ...
  • Кадкина всякий знает (Анатолий Вехотко, Наталья Трощенко, мелодрама, 1976) ...
  • Двадцать дней без войны (Алексей Герман, драма, мелодрама, военный, 1976) [ ...
  • Пиковая дама (Игорь Масленников, драма, 1982) [DVDRip, Не требуется]
  • Чудный характер (Константин Воинов, драма, 1970) [DVDRip, Не требуется]
  • Подарок чёрного колдуна (Борис Рыцарев, фэнтези, приключения, семейный, 197 ...
  • Всё дело в брате (Валентин Горлов, семейный, 1976) [TVRip, Не требуется]
  • Табор уходит в небо (Эмиль Лотяну, мюзикл, драма, мелодрама, 1976) [DVDRip, ...
  • Самый красивый конь (Степан Пучинян, мелодрама, 1976) [DVDRip, Не требуется ...
  • У меня есть лев (2 части из 2) (Константин Бромберг, драма, комедия, приклю ...
  • Пока бьют часы (Геннадий Васильев, фэнтези, семейный, 1976) [DVDRip, Не тре ...
  • Сердца четырех (Константин Юдин, мелодрама, комедия, 1941) [DVDRip, Не треб ...
  • Информация
    Посетители, находящиеся в группе Гости, не могут оставлять комментарии к данной публикации.