вход на сайт

Имя пользователя :
Пароль :

Восстановление пароля Регистрация
Солдатки (Валентин Козачков, драма, 1977) [DVDRip, Не требуется]
Рейтинг:
(голосов: 1)



[img]{THEME}/images/logopost.png[/img]



Солдатки

Год выпуска: 1977
Страна: СССР
Производство: Одесская киностудия
Жанр: драма

Режиссёр: Валентин Козачков
В ролях: Нина Ильина, Лариса Удовиченко, Зинаида Дехтярева, Владимир Алексеенко, Виктор Полищук, Александр Костюченко, Александр Кавалеров, Жоробек Аралбай, Мария Капнист, Андрей Праченко

Перевод: Не требуется
Субтитры: Отсутствуют

Описание:
Три женщины, которые во время войны были в эвакуации, возвращаются на родину, везя с собой тяжелейший сундук с запчастями для тракторов. Трудности, которые пришлось им преодолеть, легли в основу фильма.


Дополнительно:
MediaInfo ▼Text
Общее
Полное имя :D:Солдатки.1977Soldatki.(1977).avi
Формат :AVI
Размер :1.09 GiB
Продолжительность :01:11:09.320
Общий поток :2 198 Kbps
Программа кодирования :VirtualDubMod 1.5.10.2 (build 2540/release)

Видео
Идентификатор :0
Формат :MPEG-4 Visual
Параметр BVOP формата :No
Параметр Qpel формата :No
Параметр GMC формата :0
Параметр Matrix формата :Default (H.263)
Идентификатор кодека :DX50
Продолжительность :1h 11mn 9s 320ms
Битрейт :1 997 Kbps
Ширина :704 pixels
Высота :368 pixels
Соотношение сторон :1.913
Частота кадров :25.000 fps
Глубина цвета :8 bits
Подвыборка цветности :4:2:0
Цветовое пространство :YUV
Тип развертки :Progressive
Бит/(Пиксели*Кадры) :0.308
Размер потока :1 016 MiB (91%)
Библиотека кодирования :DivX503b1328

Аудио #1
Идентификатор :1
Формат :AC-3
Формат/Информация :Audio Coding 3
Идентификатор кодека :2000
Продолжительность :01:11:09.320
Вид битрейта :Constant
Битрейт :192 Kbps
Канал(ы) :2 channels
Расположение каналов :Front: L R
Частота :48.0 KHz
Битовая глубина :16 bits
Метод сжатия :Lossy
Размер потока :97.7 MiB (9%)



Тех. данные:
Качество:DVDRip
Продолжительность:01:11:00 час

Формат: AVI
Видео кодек: DivX
Аудио кодек: AC3
Видео: 704 x 368 (1.913), 25.000 fps, 1 997 Kbps,
68febda804768728d11ee578da57890bdcb98d1eСолдатки (Валентин Козачков, драма, 1977) [DVDRip, Не требуется] Солдатки (Валентин Козачков, драма, 1977) [DVDRip, Не требуется] " />

Аплоадер: Админ, дата: 27-12-2012, 23:13, торрент скачан: 359 раз

Понравилась раздача? Посмотрите эти:
  • Дневной поезд (Инесса Селезнева, драма, 1976) [DVDRip, Не требуется]
  • Где это видано, где это слыхано (Валентин Горлов, короткометражка, комедия, ...
  • Эзоп (Олег Рябоконь, драма, история, 1981) [DVDRip, Не требуется]
  • Тачанка с Юга (Евгений Шерстобитов, приключения, 1977) [DVDRip, Не требуетс ...
  • Если есть паруса (Валентин Козачков, драма, 1969) [DVDRip, Не требуется]
  • Казаки-разбойники (Валентин Козачков, детский, приключения, 1979) [DVDRip, ...
  • "Тигры" на льду (Валентин Козачков, Альберт Осипов, детский, комедия, спорт ...
  • Пустыня (Михаил Кац, драма, 1991) [TVRip, Не требуется]
  • Судьба (2 части из 2) (Евгений Матвеев, драма, мелодрама, 1977) [DVDRip, Не ...
  • Трактир на Пятницкой (Александр Файнциммер, криминал, детектив, 1977) [DVDR ...
  • Ты и я (Лариса Шепитько, драма, 1971) [DVDRip, Не требуется]
  • Печники (Виктор Храмов, драма, 1982) [DVDRip, Не требуется]
  • Мы с Вулканом (Валентин Перов, детский, семейный, 1973) [TVRip, Не требуетс ...
  • Солдат и слон (Дмитрий Кесаянц, комедия, военный, 1977) [DVDRip, Не требует ...
  • Четвертый перископ (Виктор Эйсымонт, приключения, 1942) [DVDRip, Не требует ...
  • Всё дело в брате (Валентин Горлов, семейный, 1976) [TVRip, Не требуется]
  • Как Иванушка-дурачок за чудом ходил (Надежда Кошеверова, фэнтези, семейный, ...
  • Степь (2 части из 2) (Сергей Бондарчук, драма, история, 1977) [DVDRip, Не т ...
  • Собака на сене (Реставрирован) (Ян Фрид, мюзикл, комедия, 1977) [DVDRip, Не ...
  • Путь к причалу (Георгий Данелия, драма, 1963) [DVDRip, Не требуется]
  • Приехали на конкурс повара (Нерсес Оганесян, комедия, 1977) [DVDRip, Не тре ...
  • Почти смешная история (2 части из 2) (Петр Фоменко, мелодрама, комедия, 197 ...
  • Солдатка (Владимир Денисенко, драма, 1959) [DVDRip, Не требуется]
  • Золотая речка (Вениамин Дорман, приключения, 1977) [DVDRip, Не требуется]
  • Р.В.С. (Алексей Мороз, военный, 1977) [DVDRip, (2х)Оригинал (русский)]
  • Информация
    Посетители, находящиеся в группе Гости, не могут оставлять комментарии к данной публикации.