вход на сайт

Имя пользователя :
Пароль :

Восстановление пароля Регистрация
Солдатка (Владимир Денисенко, драма, 1959) [DVDRip, Не требуется]
Рейтинг:
(голосов: 1)



[img]{THEME}/images/logopost.png[/img]



Солдатка

Год выпуска: 1959
Страна: СССР
Производство: Студия Довженко
Жанр: драма

Режиссёр: Владимир Денисенко
В ролях: Зинаида Дехтярева, Николай Козленко, Ольга Кусенко, Михаил Заднепровский, Георгий Семенов, София Карамаш, Анатолий Моторный, Людмила Сосюра, Леонид Жуковский, Константин Степанков

Перевод: Не требуется
Субтитры: Отсутствуют

Описание:
О поисках своего места в жизни теми, кто вернулся с войны.
Праздничный Киев встречает воинов - победителей. Среди шума и веселья Ирина Гаевая (Зинаида Дехтярёва) чувствует себя особенно одинокой.
Ее никто не ждет, никто не встречает на вокзале.Все ее родные и близкие погибли в годы войны. Растерянная, подавленная горем Ирина решает поехать в село, в боях за которое погиб ее муж...


Дополнительно:
MediaInfo ▼Text
Общее
Полное имя :D:СолдаткиSoldatka.(1959).avi
Формат :AVI
Размер :1.46 GiB
Продолжительность :01:29:50.960
Общий поток :2 333 Kbps
Программа кодирования :VirtualDubMod 1.5.10.2 (build 2540/release)

Видео
Идентификатор :0
Формат :MPEG-4 Visual
Параметр BVOP формата :No
Параметр Qpel формата :No
Параметр GMC формата :0
Параметр Matrix формата :Default (H.263)
Идентификатор кодека :DX50
Продолжительность :1h 29mn 50s 960ms
Битрейт :2 132 Kbps
Ширина :704 pixels
Высота :528 pixels
Соотношение сторон :1.333
Частота кадров :25.000 fps
Глубина цвета :8 bits
Подвыборка цветности :4:2:0
Цветовое пространство :YUV
Тип развертки :Progressive
Бит/(Пиксели*Кадры) :0.229
Размер потока :1.34 GiB (91%)
Библиотека кодирования :DivX503b1328

Аудио #1
Идентификатор :1
Формат :AC-3
Формат/Информация :Audio Coding 3
Идентификатор кодека :2000
Продолжительность :01:29:50.960
Вид битрейта :Constant
Битрейт :192 Kbps
Канал(ы) :2 channels
Расположение каналов :Front: L R
Частота :48.0 KHz
Битовая глубина :16 bits
Метод сжатия :Lossy
Размер потока :123 MiB (8%)



Тех. данные:
Качество:&n
8c58049de5ba3e5dfc60d8d8b3d6b418b0d2171fСолдатка (Владимир Денисенко, драма, 1959) [DVDRip, Не требуется] Солдатка (Владимир Денисенко, драма, 1959) [DVDRip, Не требуется] " />

Аплоадер: Админ, дата: 27-12-2012, 23:09, торрент скачан: 359 раз

Понравилась раздача? Посмотрите эти:
  • О чем шумит река (Григорий Мелик-Авакян, драма, 1959) [DVDRip, Не требуется ...
  • Нейтральные воды (Владимир Беренштейн, драма, 1968) [DVDRip, Не требуется]
  • Дорогой мой человек (Иосиф Хейфиц, драма, мелодрама, 1959) [DVDRip, Не треб ...
  • Дама с собачкой (Иосиф Хейфиц, драма, мелодрама, 1959) [DVDRip, Не требуетс ...
  • Шел четвертый год войны... (Георгий Николаенко, военный, 1983) [DVDRip, Не ...
  • Убийство на улице Данте (Михаил Ромм, драма, 1956) [DVDRip, Не требуется]
  • Поднятая целина (3 части из 3) (Александр Иванов, драма, 1959) [DVDRip, Не ...
  • Ссора в Лукашах (Максим Руф, мюзикл, комедия, 1959) [DVDrip, Не требуется]
  • Неподсуден (Владимир Краснопольский, Валерий Усков, драма, 1969) [DVDRip, Н ...
  • Лес (Владимир Мотыль, драма, 1980) [DVDRip, Не требуется]
  • Капитанская дочка (Владимир Каплуновский, драма, 1958) [DVDRip, Не требуетс ...
  • Порожний рейс (Владимир Венгеров, драма, 1962) [DVDRip, Не требуется]
  • Чудный характер (Константин Воинов, драма, 1970) [DVDRip, Не требуется]
  • Мульт-Салют. 7 ч. из 30: Приключения Буратино/Чиполлино (Иван Иванов-Вано, ...
  • Печники (Виктор Храмов, драма, 1982) [DVDRip, Не требуется]
  • Новые похождения Кота в сапогах // Марья-искусница (Александр Роу, фэнтези, ...
  • Сестры / Восемнадцатый год / Хмурое утро (Трилогия. Хождение по мукам) (Гри ...
  • Солдатки (Валентин Козачков, драма, 1977) [DVDRip, Не требуется]
  • Судьба человека (Сергей Бондарчук, драма, военный, биография, 1959) [DVDRip ...
  • Снежная сказка (Алексей Сахаров, Эльдар Шенгелая, фэнтези, 1959) [DVDRip, Н ...
  • 01-99 (Амаси Мартиросян, короткометражка, комедия, 1959) [DVDRip, Не требуе ...
  • Донская повесть (Владимир Фетин, драма, 1964) [DVDRip, Не требуется]
  • Звероловы (Глеб Нифонтов, приключения, 1959) [DVDRip, Не требуется]
  • Кутузов (Владимир Петров, драма, 1943) [DVDRip, Не требуется]
  • Мексиканец (Владимир Каплуновский, драма, 1955) [DVDRip, Не требуется]
  • Информация
    Посетители, находящиеся в группе Гости, не могут оставлять комментарии к данной публикации.