вход на сайт

Имя пользователя :
Пароль :

Восстановление пароля Регистрация
Председатель (2 части из 2) (Алексей Салтыков, драма, 1964) [DVDRip, Не требуется]
Рейтинг:
(голосов: 1)



[img]{THEME}/images/logopost.png[/img]



Председатель (2 части из 2)

Год выпуска: 1964
Страна: СССР
Производство: Мосфильм
Жанр: драма

Режиссёр: Алексей Салтыков
В ролях: Михаил Ульянов, Иван Лапиков, Нонна Мордюкова, Вячеслав Невинный, Валентина Владимирова, Николай Парфёнов, Кира Головко, Антонина Богданова, Владимир Этуш, Сергей Курилов

Перевод: Не требуется
Субтитры: Отсутствуют

Описание:
Фронтовик Егор Трубников возвращается в родную деревню восстанавливать разоренное, нищее хозяйство. Тяжко ему приходится — почти как на войне.

Став председателем, он взваливает на себя бремя ответственности не только за колхозные дела, но и за судьбы таких близких ему людей…


Дополнительно:
Знаете ли вы, что... ▼
Лучший фильм по опросу журнала «Советский экран» в 1966 году.
Прообразом Егора Трубникова был белорусский партизан Кирилл Орловский.

MediaInfo ▼Text
"1 часть" ▼Общее
Полное имя :K:ПредседательPredsedatel1.avi
Формат :AVI
Размер :852 MiB
Продолжительность :01:29:01.400
Общий поток :1 338 Kbps
Программа кодирования :VirtualDubModRus 1.5.10.2 (build 2542/release)
Библиотека кодирования :VirtualDubMod build 2542/release

Видео
Идентификатор :0
Формат :MPEG-4 Visual
Параметр BVOP формата :1
Параметр Qpel формата :No
Параметр GMC формата :0
Параметр Matrix формата :Default (H.263)
Идентификатор кодека :DX50
Продолжительность :1h 29mn 1s 400ms
Битрейт :1 200 Kbps
Ширина :656 pixels
Высота :320 pixels
Соотношение сторон :2.050
Частота кадров :25.000 fps
Глубина цвета :8 bits
Подвыборка цветности :4:2:0
Цветовое пространство :YUV
Тип развертки :Progressive
Бит/(Пиксели*Кадры) :0.229
Размер потока :764 MiB (90%)
Библиотека кодирования :DivX503b2676p

Аудио #1
Идентификатор :1
Формат :MPEG Audio
Идентификатор кодека :55
Продолжительность :01:29:01.392
Вид битрейта :Constant
Битрейт :128 Kbps
Канал(ы) :2 channels
Частота :48.0 KHz
Метод сжатия :Lossy
Размер потока :81.5 MiB (10%)

"2 часть" ▼Общее
Полное имя &nbs
ee9b4cd95dc4831f12bb7ae366c35338b26234fcПредседатель (2 части из 2) (Алексей Салтыков, драма, 1964) [DVDRip, Не требуется] Председатель (2 части из 2) (Алексей Салтыков, драма, 1964) [DVDRip, Не требуется] " />

Аплоадер: Админ, дата: 25-12-2012, 21:38, торрент скачан: 359 раз

Понравилась раздача? Посмотрите эти:
  • Дни хирурга Мишкина (3 части из 3) (Вадим Зобин, драма, 1967) [DVDRip, Не т ...
  • Будни и праздники Серафимы Глюкиной (2 части из 2) (Ростислав Горяев, драма ...
  • Ошибка резидента (2 части из 2) (Вениамин Дорман, детектив, 1968) [DVDRip, ...
  • Мир дому твоему (2 части из 2) (Константин Райкин, Аркадий Райкин, Марк Орл ...
  • Месье Ленуар, который... (2 части из 2) (Александр Орлов, телеспектакль, др ...
  • Три дня в Москве (2 части из 2) (Алексей Коренев, комедия, 1974) [DVDRip, Н ...
  • Балтийское небо (2 части из 2) (Владимир Венгеров, драма, военный, история, ...
  • Жили-были старик со старухой (2 части из 2) (Григорий Чухрай, драма, 1964) ...
  • Друг мой, Колька!.. (Александр Митта, Алексей Салтыков, драма, 1961) [DVDRi ...
  • Объяснение в любви (2 части из 2) (Илья Авербах, мелодрама, 1977) [DVDRip, ...
  • Степь (2 части из 2) (Сергей Бондарчук, драма, история, 1977) [DVDRip, Не т ...
  • Почти смешная история (2 части из 2) (Петр Фоменко, мелодрама, комедия, 197 ...
  • Тихий Дон (3 части из 3) (Сергей Герасимов, драма, военный, 1957) [DVDRip, ...
  • Подпольный обком действует (4 части из 4) (Анатолий Буковский, военный, 197 ...
  • В лесах под Ковелем (3 части из 3) (Юрий Тупицкий, военный, история, 1984) ...
  • Председатель (Алексей Салтыков, Киноповесть, драма, 1964) [DVDRip, Оригинал ...
  • Донская повесть (Владимир Фетин, драма, 1964) [DVDRip, Не требуется]
  • Гений (2 части из 2) (Виктор Сергеев, Комедия, криминал, 1991) [DVDRip, Не ...
  • Дядюшкин сон (2 части из2) (Александр Орлов, драма, комедия, 1981) [DVDRip, ...
  • Неизвестный солдат (3 части из 3) (Григорий Аронов, Вадим Зобин, драма, 198 ...
  • Информация
    Посетители, находящиеся в группе Гости, не могут оставлять комментарии к данной публикации.