вход на сайт

Имя пользователя :
Пароль :

Восстановление пароля Регистрация
Почти смешная история (2 части из 2) (Петр Фоменко, мелодрама, комедия, 1977) [DVDRip, Не требуется]
Рейтинг:
(голосов: 1)



[img]{THEME}/images/logopost.png[/img]



Почти смешная история (2 части из 2)

Год выпуска: 1977
Страна: СССР
Производство: ТО Экран
Жанр: мелодрама, комедия

Режиссёр: Петр Фоменко
В ролях: Ольга Антонова, Людмила Аринина, Михаил Глузский, Михаил Данилов, Мария Великанова, Владимир Пучков, Светлана Харитонова, Валентин Гафт, Людмила Полякова, Мария Миронова

Перевод: Не требуется
Субтитры: Отсутствуют

Описание:
История любви двух уже немолодых людей. Две сестры приезжают в маленький город на Волге отдохнуть. Одной — около пятидесяти, другая чуть моложе. В гостинице они знакомятся с самым обычным командировочным, который совершенно не понимает, что младшая из сестер, немного чудоковатая, влюбилась в него с первого взгляда.


Дополнительно:
MediaInfo ▼Text
"1 часть" ▼Общее
Полное имя :K:Почти смешная историяPochti smeschnaja1_Pochti smeschnaya istoriya.avi
Формат :AVI
Размер :672 MiB
Продолжительность :01:08:51.080
Общий поток :1 365 Kbps
Программа кодирования :VirtualDubModRus 1.5.10.2 (build 2542/release)
Библиотека кодирования :VirtualDubMod build 2542/release

Видео
Идентификатор :0
Формат :MPEG-4 Visual
Параметр BVOP формата :1
Параметр Qpel формата :No
Параметр GMC формата :0
Параметр Matrix формата :Default (H.263)
Идентификатор кодека :DX50
Продолжительность :1h 8mn 51s 80ms
Битрейт :1 228 Kbps
Ширина :640 pixels
Высота :480 pixels
Соотношение сторон :1.333
Частота кадров :25.000 fps
Глубина цвета :8 bits
Подвыборка цветности :4:2:0
Цветовое пространство :YUV
Тип развертки :Progressive
Бит/(Пиксели*Кадры) :0.160
Размер потока :605 MiB (90%)
Библиотека кодирования :DivX503b2676p

Аудио #1
Идентификатор :1
Формат :MPEG Audio
Идентификатор кодека :55
Продолжительность :01:08:51.072
Вид битрейта :Constant
Битрейт :128 Kbps
Канал(ы) :2 channels
Частота :48.0 KHz
Метод сжатия :Lossy
Размер потока :63.0 MiB (9%)

"2 часть" ▼Общее
Полное имя :K:Почти смешная историяPochti smeschnaja2_Pochti sme
72f18b7e754c7a30a75fc4bc207ad1c873878089Почти смешная история (2 части из 2) (Петр Фоменко, мелодрама, комедия, 1977) [DVDRip, Не требуется] Почти смешная история (2 части из 2) (Петр Фоменко, мелодрама, комедия, 1977) [DVDRip, Не требуется] " />

Аплоадер: Админ, дата: 25-12-2012, 20:55, торрент скачан: 359 раз

Понравилась раздача? Посмотрите эти:
  • Будни и праздники Серафимы Глюкиной (2 части из 2) (Ростислав Горяев, драма ...
  • Возвращение резидента (2 части из 2) (Вениамин Дорман, триллер, 1982) [DVDR ...
  • Мир дому твоему (2 части из 2) (Константин Райкин, Аркадий Райкин, Марк Орл ...
  • Люди и манекены (4 части из 4) (Виктор Храмов, Аркадий Райкин, комедия, 197 ...
  • Дон Сезар де Базан (2 части из 2) (Ян Фрид, мюзикл, комедия, 1989) [DVDRip, ...
  • Последняя жертва (Петр Тодоровский, драма, мелодрама, 1975) [DVDRip, Не тре ...
  • Поднятая целина (3 части из 3) (Александр Иванов, драма, 1959) [DVDRip, Не ...
  • Балтийское небо (2 части из 2) (Владимир Венгеров, драма, военный, история, ...
  • Операция «Трест» (4 части из 4) (Сергей Колосов, приключения, история, 1967 ...
  • Объяснение в любви (2 части из 2) (Илья Авербах, мелодрама, 1977) [DVDRip, ...
  • Судьба (2 части из 2) (Евгений Матвеев, драма, мелодрама, 1977) [DVDRip, Не ...
  • Степь (2 части из 2) (Сергей Бондарчук, драма, история, 1977) [DVDRip, Не т ...
  • Сибириада (4 части из 4) (Андрей Кончаловский, драма, военный, история, 197 ...
  • Ханума (2 части из 2) (Георгий Товстоногов, мюзикл, комедия, 1978) [DVDRip, ...
  • Председатель (2 части из 2) (Алексей Салтыков, драма, 1964) [DVDRip, Не тре ...
  • Тихий Дон (3 части из 3) (Сергей Герасимов, драма, военный, 1957) [DVDRip, ...
  • В лесах под Ковелем (3 части из 3) (Юрий Тупицкий, военный, история, 1984) ...
  • Гений (2 части из 2) (Виктор Сергеев, Комедия, криминал, 1991) [DVDRip, Не ...
  • Дядюшкин сон (2 части из2) (Александр Орлов, драма, комедия, 1981) [DVDRip, ...
  • Моонзунд (2 части из 2) (Александр Муратов, драма, мелодрама, военный, исто ...
  • Информация
    Посетители, находящиеся в группе Гости, не могут оставлять комментарии к данной публикации.