вход на сайт

Имя пользователя :
Пароль :

Восстановление пароля Регистрация
Похождения Насреддина (Наби Ганиев, комедия, 1946) [DVDRip, Не требуется]
Рейтинг:
(голосов: 1)



[img]{THEME}/images/logopost.png[/img]



Похождения Насреддина

Год выпуска: 1946
Страна: Австралия
Производство: Студия Ташкент
Жанр: комедия

Режиссёр: Наби Ганиев
В ролях: Раззак Хамраев, Хайла Ганиева, Юлдуз Ризаева, Рахим Пирмухамедов, Кабил Халиков, Абуд Джалилов, Сейфи Алимов, Саат Талипов, Владимир Балашов

Перевод: Не требуется
Субтитры: Отсутствуют

Описание:
Фильм рассказывает о приключениях героя восточных легенд Ходжы Насреддина, защитника угнетенных и обездоленных.


Дополнительно:
MediaInfo ▼Text
Общее
Полное имя :L:3.РаздачаПохождения НасреддинаPohojdeniya Nasreddina.1946.DVDRip.avi
Формат :AVI
Размер :1.37 GiB
Продолжительность :01:13:23.480
Общий поток :2 663 Kbps
Программа кодирования :VirtualDubModRus 1.5.10.2 (build 2542/release)
Библиотека кодирования :VirtualDubMod build 2542/release

Видео
Идентификатор :0
Формат :MPEG-4 Visual
Профиль формата :Advanced [email protected]
Параметр BVOP формата :2
Параметр Qpel формата :No
Параметр GMC формата :0
Параметр Matrix формата :Default (H.263)
Идентификатор кодека :XVID
Продолжительность :1h 13mn 23s 480ms
Битрейт :2 462 Kbps
Ширина :720 pixels
Высота :544 pixels
Соотношение сторон :1.324
Частота кадров :25.000 fps
Глубина цвета :8 bits
Подвыборка цветности :4:2:0
Цветовое пространство :YUV
Тип развертки :Progressive
Бит/(Пиксели*Кадры) :0.251
Размер потока :1.26 GiB (92%)
Библиотека кодирования :XviD0050

Аудио #1
Идентификатор :1
Формат :AC-3
Формат/Информация :Audio Coding 3
Идентификатор кодека :2000
Продолжительность :01:13:23.296
Вид битрейта :Constant
Битрейт :192 Kbps
Канал(ы) :2 channels
Расположение каналов :Front: L R
Частота :48.0 KHz
Битовая глубина :16 bits
Метод сжатия :Lossy
Размер потока :101 MiB (7%)Тех. данные:
Качество:DVDRip
Продолжительность:01:13:20 час
 
76b45918573a62b11ece0910dc7407808fb9c672Похождения Насреддина (Наби Ганиев, комедия, 1946) [DVDRip, Не требуется] Похождения Насреддина (Наби Ганиев, комедия, 1946) [DVDRip, Не требуется] " />

Аплоадер: Админ, дата: 25-12-2012, 20:48, торрент скачан: 359 раз

Понравилась раздача? Посмотрите эти:
  • Нейтральные воды (Владимир Беренштейн, драма, 1968) [DVDRip, Не требуется]
  • Дама с собачкой (Иосиф Хейфиц, драма, мелодрама, 1959) [DVDRip, Не требуетс ...
  • Приключения Толи Клюквина (Виктор Эйсымонт, комедия, семейный, 1964) [DVDRi ...
  • Пакет (Владимир Назаров, комедия, приключения, семейный, 1965) [DVDRip, Не ...
  • Печёнка (Арман Манарян, короткометражка, комедия, 1962) [DVDRip, Не требует ...
  • Насреддин в Бухаре (Nasreddin v Bukhare) (Яков Протазанов, мелодрама, комед ...
  • Рысь выходит на тропу (Агаси Бабаян, комедия, 1983) [DVDRip, Не требуется]
  • Первая перчатка (Андрей Фролов, мюзикл, мелодрама, комедия, спорт, 1946) [D ...
  • Чайка (Юлий Карасик, драма, 1972) [DVDRip, Не требуется]
  • Бабушки надвое сказали (Валерий Харченко, Юрий Клебанов, комедия, 1979) [DV ...
  • Сотрудник ЧК (Борис Волчек, боевик, история, 1963) [DVDRip, Не требуется]
  • Майская ночь, или Утопленница (Александр Роу, фэнтези, комедия, 1952) [DVDR ...
  • Уходя - уходи (Виктор Трегубович, комедия, 1978) [DVDRip, Не требуется]
  • Робинзон Крузо (Александр Андриевский, драма, приключения, 1946) [DVDRip, Н ...
  • Старомодная комедия (Эра Савельева, Татьяна Березанцева, мелодрама, 1978) [ ...
  • Хозяин и слуга (Дмитрий Кесаянц, короткометражка, комедия, 1963) [DVDRip, Н ...
  • Драгоценный подарок (Александр Роу, семейный, 1956) [DVDRip, Не требуется]
  • Шофер поневоле (Надежда Кошеверова, комедия, 1958) [DVDRip, Не требуется]
  • Чудак-человек (Владимир Кочетов, комедия, 1962) [DVDRip, Не требуется]
  • Адмирал Нахимов (Всеволод Пудовкин, драма, военный, биография, история, 194 ...
  • Информация
    Посетители, находящиеся в группе Гости, не могут оставлять комментарии к данной публикации.