вход на сайт

Имя пользователя :
Пароль :

Восстановление пароля Регистрация
Приключения желтого чемоданчика (Илья Фрэз, комедия, семейный, 1970) [DVDRip, Не требуется]
Рейтинг:
(голосов: 1)



[img]{THEME}/images/logopost.png[/img]



Приключения желтого чемоданчика

Год выпуска: 1970
Страна: СССР
Производство: Студия Горького
Жанр: комедия, семейный

Режиссёр: Илья Фрэз
В ролях: Татьяна Пельтцер, Евгений Лебедев, Наталья Селезнёва, Борис Быстров, Лариса Тихонова, Виктор Тихонов, Евгений Весник, Константин Кунтышев, Андрей Громов, Виктория Чернакова

Перевод: Не требуется
Субтитры: Отсутствуют

Описание:
Мальчик Петя был таким пугливым, что его мама решила обратиться к доктору. У волшебника-доктора есть прекрасное лекарство — «конфеты настоящей храбрости», да вот беда: чемоданчик с чудо-медикаментами попадает в чужие руки.

Последствия могут быть самыми плачевными, однако, к счастью, их удается избежать. А Петя, неожиданно для всех и себя самого, становится храбрым без всяких лекарств…


Дополнительно:
MediaInfo ▼Text
Общее
Полное имя :D:Приключения желтого чемоданчикаПриключения желтого чемоданчика.avi
Формат :AVI
Размер :1 019 MiB
Продолжительность :00:56:11.712
Общий поток :2 535 Kbps
Программа кодирования :VirtualDubMod 1.5.10.2 (build 2540/release)
Библиотека кодирования :VirtualDubMod build 2540/release

Видео
Идентификатор :0
Формат :MPEG-4 Visual
Профиль формата :Advanced [email protected]
Параметр BVOP формата :2
Параметр Qpel формата :No
Параметр GMC формата :0
Параметр Matrix формата :Default (H.263)
Идентификатор кодека :XVID
Продолжительность :56mn 9s 920ms
Битрейт :2 398 Kbps
Ширина :704 pixels
Высота :544 pixels
Соотношение сторон :1.294
Частота кадров :25.000 fps
Глубина цвета :8 bits
Подвыборка цветности :4:2:0
Цветовое пространство :YUV
Тип развертки :Progressive
Бит/(Пиксели*Кадры) :0.250
Размер потока :963 MiB (95%)
Библиотека кодирования :XviD0047

Аудио #1
Идентификатор :1
Формат :MPEG Audio
Идентификатор кодека :55
Продолжительность :00:56:11.712
Вид битрейта :Constant
Битрейт :128 Kbps
Канал(ы) :2 channels
Частота :48.0 KHz
Метод сжатия :Lossy
Размер потока :51.4 MiB (5%)

5646c4216decfe22b42ffd208cb7ea870278dc02Приключения желтого чемоданчика (Илья Фрэз, комедия, семейный, 1970) [DVDRip, Не требуется] Приключения желтого чемоданчика (Илья Фрэз, комедия, семейный, 1970) [DVDRip, Не требуется] " />

Аплоадер: Админ, дата: 25-12-2012, 20:13, торрент скачан: 359 раз

Понравилась раздача? Посмотрите эти:
  • Вас вызывает Таймыр (Алексей Коренев, комедия, 1970) [DVDRip, Не требуется] ...
  • Акваланги на дне (Евгений Шерстобитов, боевик, приключения, семейный, 1965) ...
  • Необыкновенное путешествие Мишки Стрекачева (Илья Фрэз, Эдуард Бочаров, сем ...
  • Ход конем (Татьяна Лукашевич, комедия, 1962) [DVDRip, Не требуется]
  • Тачанка с Юга (Евгений Шерстобитов, приключения, 1977) [DVDRip, Не требуетс ...
  • Тайна железной двери (Михаил Юзовский, фантастика, приключения, семейный, 1 ...
  • Рыжик (Илья Фрэз, приключения, семейный, 1960) [DVDRip, Не требуется]
  • Приключения Толи Клюквина (Виктор Эйсымонт, комедия, семейный, 1964) [DVDRi ...
  • Пакет (Владимир Назаров, комедия, приключения, семейный, 1965) [DVDRip, Не ...
  • Первоклассница (Илья Фрэз, детский, 1948) [DVDRip, Не требуется]
  • Волшебная сила (Наум Бирман, мюзикл, комедия, семейный, 1970) [DVDRip, Не т ...
  • Иван да Марья (Борис Рыцарев, фэнтези, мелодрама, комедия, семейный, музыка ...
  • Опекун (Эдгар Ходжикян, Альберт С. Мкртчян, комедия, 1970) [DVDRip, Не треб ...
  • Это мы не проходили (Илья Фрэз, драма, 1975) [DVDRip, Не требуется]
  • Чудный характер (Константин Воинов, драма, 1970) [DVDRip, Не требуется]
  • Подарок чёрного колдуна (Борис Рыцарев, фэнтези, приключения, семейный, 197 ...
  • Чудак из пятого «Б» (Илья Фрэз, комедия, семейный, 1972) [DVDRip, Не требуе ...
  • Карусель (Михаил Швейцер, комедия, 1970) [DVDRip, Не требуется]
  • Я вас любил... (Илья Фрэз, мелодрама, комедия, 1967) [DVDRip, Не требуется] ...
  • Фантазии Фарятьева (Илья Авербах, драма, комедия, 1979) [DVDRip, Не требует ...
  • У меня есть лев (2 части из 2) (Константин Бромберг, драма, комедия, приклю ...
  • Приключения жёлтого чемоданчика (Режиссёр - Илья Фрэз, сказка-комедия, ССС ...
  • Приключения жёлтого чемоданчика (Илья Фрэз, Комедия, Семейный, 1970) [DVDRi ...
  • Тайна железной двери (Михаил Юзовский, Фантастика, Приключения, Семейный, 1 ...
  • Карантин (Илья Фрэз, комедия, 1983) [DVDRip, Не требуется]
  • Информация
    Посетители, находящиеся в группе Гости, не могут оставлять комментарии к данной публикации.