вход на сайт

Имя пользователя :
Пароль :

Восстановление пароля Регистрация
Сердце Бонивура (4 части из 4) (Марк Орлов, история, 1969) [TVRip, Не требуется]
Рейтинг:
(голосов: 1)



[img]{THEME}/images/logopost.png[/img]



Сердце Бонивура (4 части из 4)

Год выпуска: 1969
Страна: СССР
Производство: Студия Довженко
Жанр: история

Режиссёр: Марк Орлов
В ролях: Лев Прыгунов, Борис Чирков, Иван Переверзев, Виктор Коршунов, Петр Глебов, Майя Булгакова, Евгений Буренков, Герман Колушкин, Павел Волков, Анатолий Юрченко

Перевод: Не требуется
Субтитры: Отсутствуют

Описание:
Историко-революционный героико-приключенческий фильм. По одноименному роману Дмитрия Нагишкина.

О заключительном этапе борьбы за Советскую власть на Дальнем Востоке, о революционной молодежи тех героических лет.


Дополнительно:
Знаете ли вы, что... ▼
В феврале 1971 года был выпущен на экран двухсерийный киновариант с хронометражом 157 минут.

MediaInfo ▼Text
"1 часть" ▼Общее
Полное имя :J:Сердце БонивураSerdce BonivuraSerdce Bonivura(1-ja.serija.iz.4).avi
Формат :AVI
Размер :743 MiB
Продолжительность :01:04:27.280
Общий поток :1 612 Kbps

Видео
Идентификатор :0
Формат :MPEG-4 Visual
Профиль формата :Advanced [email protected]
Параметр BVOP формата :1
Параметр Qpel формата :No
Параметр GMC формата :0
Параметр Matrix формата :Custom
Идентификатор кодека :XVID
Продолжительность :1h 4mn 27s 280ms
Битрейт :1 411 Kbps
Ширина :656 pixels
Высота :480 pixels
Соотношение сторон :1.367
Частота кадров :25.000 fps
Глубина цвета :8 bits
Подвыборка цветности :4:2:0
Цветовое пространство :YUV
Тип развертки :Progressive
Бит/(Пиксели*Кадры) :0.179
Размер потока :650 MiB (87%)
Библиотека кодирования :XviD0050

Аудио #1
Идентификатор :1
Формат :AC-3
Формат/Информация :Audio Coding 3
Идентификатор кодека :2000
Продолжительность :01:04:27.232
Вид битрейта :Constant
Битрейт :192 Kbps
Канал(ы) :2 channels
Расположение каналов :Front: L R
Частота :48.0 KHz
Битовая глубина :16 bits
Метод сжатия :Lossy
Размер потока :88.5 MiB (12%)
Язык  
676fefa604b3c89892ad94db834f3248975935aeСердце Бонивура (4 части из 4) (Марк Орлов, история, 1969) [TVRip, Не требуется] Сердце Бонивура (4 части из 4) (Марк Орлов, история, 1969) [TVRip, Не требуется] " />

Аплоадер: Админ, дата: 23-12-2012, 16:07, торрент скачан: 359 раз

Понравилась раздача? Посмотрите эти:
  • Дни хирурга Мишкина (3 части из 3) (Вадим Зобин, драма, 1967) [DVDRip, Не т ...
  • Агония (2 части из 2) (Элем Климов, драма, биография, история, 1981) [DVDRi ...
  • Мир дому твоему (2 части из 2) (Константин Райкин, Аркадий Райкин, Марк Орл ...
  • Месье Ленуар, который... (2 части из 2) (Александр Орлов, телеспектакль, др ...
  • Люди и манекены (4 части из 4) (Виктор Храмов, Аркадий Райкин, комедия, 197 ...
  • Достояние республики (2 части из 2) (Владимир Бычков, Студия Горького, 1971 ...
  • Призрак (Никита Орлов, боевик, триллер, 1991) [TVRip, Не требуется]
  • Вся королевская рать (3 части из 3) (Наум Ардашников, Александр Гуткович, д ...
  • Князь Игорь (Роман Тихомиров, мюзикл, приключения, 1969) [DVDRip, Не требуе ...
  • Повесть о человеческом сердце (3 части из 3) (Даниил Храбровицкий, мелодрам ...
  • Челюскинцы (2 части из 2) (Михаил Ершов, приключения, 1984) [TVRip, Не треб ...
  • Царь Иван Грозный (2 части из 2) (Геннадий Васильев, Драма, история, 1991) ...
  • Царская охота (2 части из 2) (Виталий Мельников, драма, история, 1990) [DVD ...
  • Взятки гладки (2 части из 2) (Игорь Масленников, Комедия, 2008) [DVDRip, Не ...
  • Степь (2 части из 2) (Сергей Бондарчук, драма, история, 1977) [DVDRip, Не т ...
  • Чучело (2 части из 2) (Ролан Быков, Аркадий Хайт, драма, 1983) [DVDRip, Не ...
  • Раннее, раннее утро... (3 части из 3) (Валерий Харченко, семейный, 1983) [T ...
  • Ревизор (2 части из 2) (Евгений Весник, Марк Орлов, Юрий Соломин, комедия, ...
  • Сибириада (4 части из 4) (Андрей Кончаловский, драма, военный, история, 197 ...
  • Почти смешная история (2 части из 2) (Петр Фоменко, мелодрама, комедия, 197 ...
  • Сказка о Звездном мальчике (2 части из 2) (Леонид Нечаев, фэнтези, 1983) [D ...
  • Тихий Дон (3 части из 3) (Сергей Герасимов, драма, военный, 1957) [DVDRip, ...
  • Подпольный обком действует (4 части из 4) (Анатолий Буковский, военный, 197 ...
  • В лесах под Ковелем (3 части из 3) (Юрий Тупицкий, военный, история, 1984) ...
  • Дядюшкин сон (2 части из2) (Александр Орлов, драма, комедия, 1981) [DVDRip, ...
  • Информация
    Посетители, находящиеся в группе Гости, не могут оставлять комментарии к данной публикации.