вход на сайт

Имя пользователя :
Пароль :

Восстановление пароля Регистрация
Проделки в старинном духе (Александр Панкратов, комедия, 1986) [DVDRip, Не требуется]
Рейтинг:
(голосов: 1)



[img]{THEME}/images/logopost.png[/img]



Проделки в старинном духе

Год выпуска: 1986
Страна: СССР
Производство: Мосфильм
Жанр: комедия

Режиссёр: Александр Панкратов
В ролях: Дарья Михайлова, Владимир Самойлов, Николай Трофимов, Михаил Кононов, Алексей Нестеренко, Борис Бачурин, Валентин Голубенко, Глеб Плаксин, Мария Шашкова, Татьяна Шашкова

Перевод: Не требуется
Субтитры: Отсутствуют

Описание:
Промотав состояние, отставной гусар Кобелев задумал женить сына на дочке зажиточного помещика-соседа. Однако невеста решает проверить истинность чувств своего суженого и устраивает дело так, что ее «похищают» прямо из-под венца…


Дополнительно:
MediaInfo ▼Text
Общее
Полное имя :L:Проделки в старинном духеProdelki v starinnom dukhe.DYDRip.avi
Формат :AVI
Размер :1.10 GiB
Продолжительность :01:09:54.240
Общий поток :2 253 Kbps
Программа кодирования :VirtualDubModRus 1.5.10.2 (build 2542/release)
Библиотека кодирования :VirtualDubMod build 2542/release

Видео
Идентификатор :0
Формат :MPEG-4 Visual
Параметр BVOP формата :1
Параметр Qpel формата :No
Параметр GMC формата :0
Параметр Matrix формата :Default (H.263)
Идентификатор кодека :DX50
Продолжительность :1h 9mn 54s 240ms
Битрейт :2 051 Kbps
Ширина :720 pixels
Высота :336 pixels
Соотношение сторон :2.143
Частота кадров :25.000 fps
Глубина цвета :8 bits
Подвыборка цветности :4:2:0
Цветовое пространство :YUV
Тип развертки :Progressive
Бит/(Пиксели*Кадры) :0.339
Размер потока :1.00 GiB (91%)
Библиотека кодирования :DivX503b2676p

Аудио #1
Идентификатор :1
Формат :AC-3
Формат/Информация :Audio Coding 3
Идентификатор кодека :2000
Продолжительность :01:09:54.240
Вид битрейта :Constant
Битрейт :192 Kbps
Канал(ы) :2 channels
Расположение каналов :Front: L R
Частота :48.0 KHz
Битовая глубина :16 bits
Метод сжатия :Lossy
Размер потока :96.0 MiB (9%)Тех. данные:
Качество:DVDRip
Продолжительность:&nbs
b183ac237b271923cd55ccdc953e40b6c6575e3fПроделки в старинном духе (Александр Панкратов, комедия, 1986) [DVDRip, Не требуется] Проделки в старинном духе (Александр Панкратов, комедия, 1986) [DVDRip, Не требуется] " />

Аплоадер: Админ, дата: 23-12-2012, 16:04, торрент скачан: 359 раз

Понравилась раздача? Посмотрите эти:
  • На подмостках сцены (Константин Юдин, драма, комедия, 1956) [DVDRip, Не тре ...
  • Нейтральные воды (Владимир Беренштейн, драма, 1968) [DVDRip, Не требуется]
  • Начало (Глеб Панфилов, мелодрама, комедия, 1970) [DVDRip, Не требуется]
  • Четвертый (Александр Столпер, драма, 1972) [DVDRip, Не требуется]
  • Прощай, шпана замоскворецкая... (Александр Панкратов, драма, мелодрама, 198 ...
  • По главной улице с оркестром (Петр Тодоровский, мюзикл, мелодрама, комедия, ...
  • Пакет (Владимир Назаров, комедия, приключения, семейный, 1965) [DVDRip, Не ...
  • Парень из нашего города (Александр Столпер, Борис Иванов, драма, военный, 1 ...
  • Гиперболоид инженера Гарина (Александр Гинцбург, фантастика, 1965) [DVDRip, ...
  • Левша (Сергей Овчаров, драма, комедия, 1986) [DVDRip, Не требуется]
  • Комиссар (Александр Аскольдов, драма, военный, 1967) [DVDRip, Не требуется] ...
  • Мы с вами где-то встречались (Николай Досталь, Андрей Тутышкин, комедия, 19 ...
  • Сватовство гусара (Светлана Дружинина, мюзикл, мелодрама, комедия, 1979) [D ...
  • Бабушки надвое сказали (Валерий Харченко, Юрий Клебанов, комедия, 1979) [DV ...
  • Сотрудник ЧК (Борис Волчек, боевик, история, 1963) [DVDRip, Не требуется]
  • Майская ночь, или Утопленница (Александр Роу, фэнтези, комедия, 1952) [DVDR ...
  • Светлая личность (Александр Павловский, мюзикл, комедия, 1989) [DVDRip, Не ...
  • Уходя - уходи (Виктор Трегубович, комедия, 1978) [DVDRip, Не требуется]
  • Скверный анекдот (Александр Алов, Владимир Наумов, комедия, 1966) [DVDRip, ...
  • Старомодная комедия (Эра Савельева, Татьяна Березанцева, мелодрама, 1978) [ ...
  • Садко (Александр Птушко, фэнтези, приключения, 1952) [DVDRip, Не требуется] ...
  • Донская повесть (Владимир Фетин, драма, 1964) [DVDRip, Не требуется]
  • Драгоценный подарок (Александр Роу, семейный, 1956) [DVDRip, Не требуется]
  • Здравствуйте, я ваша тетя! (Виктор Титов, комедия, 1974) [DVDRip, Не требуе ...
  • Чудак-человек (Владимир Кочетов, комедия, 1962) [DVDRip, Не требуется]
  • Информация
    Посетители, находящиеся в группе Гости, не могут оставлять комментарии к данной публикации.