вход на сайт

Имя пользователя :
Пароль :

Восстановление пароля Регистрация
Приморский бульвар (2 части из 2) (Александр Полынников, мюзикл, комедия, 1988) [DVDRip, Не требуется]
Рейтинг:
(голосов: 1)



[img]{THEME}/images/logopost.png[/img]



Приморский бульвар (2 части из 2)

Год выпуска: 1988
Страна: СССР
Производство: Одесская киностудия
Жанр: мюзикл, комедия

Режиссёр: Александр Полынников
В ролях: Валентина Талызина, Олег Федулов, Оксана Фомичева, Андрей Градов, Ольга Кабо, Александр Кузнецов, Валентина Легкоступова, Анна Назарьева, Анатолий Равикович, Марина Шиманская

Перевод: Не требуется
Субтитры: Отсутствуют

Описание:
Саша Ермоленко, догоняя понравившуюся ему девушку, становится виновником дорожно-транспортного происшествия. Пострадавший в аварии сценарист Огоньков, выяснив причину случившегося, соглашается не брать с него денег на ремонт машины при условии: Саша должен помочь ему придумать увлекательный сюжет для рекламного ролика, заказанного Госстрахом.


Дополнительно:
MediaInfo ▼Text
"1 часть" ▼Общее
Полное имя :L:Приморский бульварPrimorskiy_bulvarPrimorskiy_bulvar_1.avi
Формат :AVI
Размер :701 MiB
Продолжительность :01:03:26.480
Общий поток :1 544 Kbps
Программа кодирования :VirtualDubMod 1.5.10.1 (build 2366/release)
Библиотека кодирования :VirtualDubMod build 2366/release

Видео
Идентификатор :0
Формат :MPEG-4 Visual
Параметр BVOP формата :1
Параметр Qpel формата :No
Параметр GMC формата :0
Параметр Matrix формата :Default (H.263)
Идентификатор кодека :DX50
Продолжительность :1h 3mn 26s 480ms
Битрейт :1 342 Kbps
Ширина :752 pixels
Высота :574 pixels
Соотношение сторон :1.310
Частота кадров :25.000 fps
Глубина цвета :8 bits
Подвыборка цветности :4:2:0
Цветовое пространство :YUV
Тип развертки :Progressive
Бит/(Пиксели*Кадры) :0.124
Размер потока :609 MiB (87%)
Библиотека кодирования :DivX503b2816p

Аудио #1
Идентификатор :1
Формат :MPEG Audio
Идентификатор кодека :55
Продолжительность :01:03:26.440
Вид битрейта :Constant
Битрейт :192 Kbps
Канал(ы) :2 channels
Частота :44.1 KHz
Метод сжатия :Lossy
Размер потока :87.1 MiB (12%)

"2 часть" ▼Общее
Полное имя :L:Приморский бульварP
31545466e736dff218c831b9c627638f276a27cfПриморский бульвар (2 части из 2) (Александр Полынников, мюзикл, комедия, 1988) [DVDRip, Не требуется] Приморский бульвар (2 части из 2) (Александр Полынников, мюзикл, комедия, 1988) [DVDRip, Не требуется] " />

Аплоадер: Админ, дата: 23-12-2012, 15:55, торрент скачан: 359 раз

Понравилась раздача? Посмотрите эти:
  • Дни хирурга Мишкина (3 части из 3) (Вадим Зобин, драма, 1967) [DVDRip, Не т ...
  • Будни и праздники Серафимы Глюкиной (2 части из 2) (Ростислав Горяев, драма ...
  • Биндюжник и король (2 части из 2) (Владимир Алеников, мюзикл, драма, комеди ...
  • Месье Ленуар, который... (2 части из 2) (Александр Орлов, телеспектакль, др ...
  • Люди и манекены (4 части из 4) (Виктор Храмов, Аркадий Райкин, комедия, 197 ...
  • Дон Сезар де Базан (2 части из 2) (Ян Фрид, мюзикл, комедия, 1989) [DVDRip, ...
  • Покровские ворота (2 части из 2) (Михаил Козаков, мюзикл, драма, мелодрама, ...
  • Вся королевская рать (3 части из 3) (Наум Ардашников, Александр Гуткович, д ...
  • Небесные ласточки (2 части из 2) (Леонид Квинихидзе, мюзикл, драма, комедия ...
  • Комедия ошибок (2 части из 2) (Вадим Гаузнер, комедия, 1978) [DVDRip, Не тр ...
  • Карнавал (2 части из 2) (Татьяна Лиознова, мюзикл, комедия, 1981) [DVDRip, ...
  • Приморский бульвар (Александр Полынников, мюзикл, комедия, 1988) [DVDRip, Н ...
  • Энергичные люди (2 части из 2) (Владимир Захаров, комедия, 1988) [DVDRip, Н ...
  • Степь (2 части из 2) (Сергей Бондарчук, драма, история, 1977) [DVDRip, Не т ...
  • Трест, который лопнул (3 части из 3) (Александр Павловский, мюзикл, комедия ...
  • У меня есть лев (2 части из 2) (Константин Бромберг, драма, комедия, приклю ...
  • Ханума (2 части из 2) (Георгий Товстоногов, мюзикл, комедия, 1978) [DVDRip, ...
  • Проданный смех (2 части из 2) (Леонид Нечаев, мюзикл, фэнтези, приключения, ...
  • Тихий Дон (3 части из 3) (Сергей Герасимов, драма, военный, 1957) [DVDRip, ...
  • Рок-н-ролл для принцесс (2 части из 2) (Радомир Василевский, Комедия, семей ...
  • Подпольный обком действует (4 части из 4) (Анатолий Буковский, военный, 197 ...
  • Гений (2 части из 2) (Виктор Сергеев, Комедия, криминал, 1991) [DVDRip, Не ...
  • Дядюшкин сон (2 части из2) (Александр Орлов, драма, комедия, 1981) [DVDRip, ...
  • Воскресенье, половина седьмого (4 части из 4) (Вадим Зобин, криминал, детек ...
  • Каникулы Петрова и Васечкина, обыкновенные и невероятные (2 части из 2) (Вл ...
  • Информация
    Посетители, находящиеся в группе Гости, не могут оставлять комментарии к данной публикации.