вход на сайт

Имя пользователя :
Пароль :

Восстановление пароля Регистрация
Приехали на конкурс повара (Нерсес Оганесян, комедия, 1977) [DVDRip, Не требуется]
Рейтинг:
(голосов: 1)



[img]{THEME}/images/logopost.png[/img]



Приехали на конкурс повара

Год выпуска: 1977
Страна: СССР
Производство: Арменфильм
Жанр: комедия

Режиссёр: Нерсес Оганесян
В ролях: Армен Джигарханян, Ерванд Манарян, Степан Арутюнян, Евгения Симонова, Борис Щербаков, Ирина Мурзаева, Владимир Басов, Ара Бабаджанян, Евгений Перов, Наталья Гицерот

Перевод: Не требуется
Субтитры: Отсутствуют

Описание:
В Москву на конкурс мастеров кулинарного искусства приезжают три замечательных повара из Еревана. Несмотря на все их усилия и мастерство призовое место от армян уплывает. Виной тому — целый ряд веселых и забавных недоразумений…


Дополнительно:
MediaInfo ▼Text
Общее
Полное имя :L:Приехали на конкурс повараПриехали на конкурс повара.avi
Формат :AVI
Размер :1.37 GiB
Продолжительность :01:10:07.880
Общий поток :2 790 Kbps
Программа кодирования :VirtualDubMod 1.5.4.1 (build 2178/release)
Библиотека кодирования :VirtualDubMod build 2178/release

Видео
Идентификатор :0
Формат :MPEG-4 Visual
Профиль формата :Advanced [email protected]
Параметр BVOP формата :1
Параметр Qpel формата :No
Параметр GMC формата :0
Параметр Matrix формата :Custom
Идентификатор кодека :XVID
Продолжительность :1h 10mn 7s 880ms
Битрейт :2 591 Kbps
Ширина :720 pixels
Высота :544 pixels
Соотношение сторон :1.324
Частота кадров :25.000 fps
Глубина цвета :8 bits
Подвыборка цветности :4:2:0
Цветовое пространство :YUV
Тип развертки :Progressive
Бит/(Пиксели*Кадры) :0.265
Размер потока :1.27 GiB (93%)
Библиотека кодирования :XviD0047

Аудио #1
Идентификатор :1
Формат :AC-3
Формат/Информация :Audio Coding 3
Идентификатор кодека :2000
Продолжительность :01:10:07.872
Вид битрейта :Constant
Битрейт :192 Kbps
Канал(ы) :2 channels
Расположение каналов :Front: L R
Частота :48.0 KHz
Битовая глубина :16 bits
Метод сжатия :Lossy
Размер потока :96.3 MiB (7%)
Язык &n
d184daab926fe0f6e1f14fddf3e4a042f9edf38eПриехали на конкурс повара (Нерсес Оганесян, комедия, 1977) [DVDRip, Не требуется] Приехали на конкурс повара (Нерсес Оганесян, комедия, 1977) [DVDRip, Не требуется] " />

Аплоадер: Админ, дата: 23-12-2012, 15:43, торрент скачан: 359 раз

Понравилась раздача? Посмотрите эти:
  • Где это видано, где это слыхано (Валентин Горлов, короткометражка, комедия, ...
  • Моя любовь (Владимир Корш-Саблин, мюзикл, мелодрама, комедия, 1940) [DVDRip ...
  • Левша (Сергей Овчаров, драма, комедия, 1986) [DVDRip, Не требуется]
  • Комедия ошибок (2 части из 2) (Вадим Гаузнер, комедия, 1978) [DVDRip, Не тр ...
  • Приехали на конкурс повара (Нерсес Оганесян, Комедия, 1977 г) [TVrip, Ориги ...
  • Печёнка (Арман Манарян, короткометражка, комедия, 1962) [DVDRip, Не требует ...
  • Трактир на Пятницкой (Александр Файнциммер, криминал, детектив, 1977) [DVDR ...
  • Солдат и слон (Дмитрий Кесаянц, комедия, военный, 1977) [DVDRip, Не требует ...
  • Дача (Константин Воинов, комедия, 1974) [DVDRip, Не требуется]
  • Небывальщина (Сергей Овчаров, комедия, 1983) [DVDRip, Не требуется]
  • Чудак из пятого «Б» (Илья Фрэз, комедия, семейный, 1972) [DVDRip, Не требуе ...
  • Взятки гладки (2 части из 2) (Игорь Масленников, Комедия, 2008) [DVDRip, Не ...
  • Карусель (Михаил Швейцер, комедия, 1970) [DVDRip, Не требуется]
  • Славный малый (Борис Барнет, военный, 1943) [DVDRip, Не требуется]
  • Собака на сене (Реставрирован) (Ян Фрид, мюзикл, комедия, 1977) [DVDRip, Не ...
  • Приехали на конкурс повара (Михаил Калатозов,Комедия, 1977) [DVDRip, не тре ...
  • Золотая речка (Вениамин Дорман, приключения, 1977) [DVDRip, Не требуется]
  • Р.В.С. (Алексей Мороз, военный, 1977) [DVDRip, (2х)Оригинал (русский)]
  • Приключения Кроша (Генрих Оганесян, семейный, 1961) [DVDRip, Не требуется]
  • Карьера Димы Горина (Фрунзе Довлатян, Лев Мирский, комедия, 1962) [DVDRip, ...
  • Информация
    Посетители, находящиеся в группе Гости, не могут оставлять комментарии к данной публикации.