вход на сайт

Имя пользователя :
Пароль :

Восстановление пароля Регистрация
Старомодная комедия (Эра Савельева, Татьяна Березанцева, мелодрама, 1978) [DVDRip, Не требуется]
Рейтинг:
(голосов: 1)



[img]{THEME}/images/logopost.png[/img]



Старомодная комедия

Год выпуска: 1978
Страна: СССР
Производство: Мосфильм
Жанр: мелодрама

Режиссёр: Эра Савельева, Татьяна Березанцева
В ролях: Алиса Фрейндлих, Игорь Владимиров, Галина Беседина

Перевод: Не требуется
Субтитры: Отсутствуют

Описание:
Действие происходит в Прибалтике в санатории. Он — главный врач. Она — бывшая цирковая артистка. Встреча двух немолодых людей превращается в дружбу и взаимную симпатию.


Дополнительно:
MediaInfo ▼Text
Общее
Полное имя :K:Старомодная комедияStaromodnaya komediya.DVDRip.avi
Формат :AVI
Размер :1.37 GiB
Продолжительность :01:29:00.280
Общий поток :2 198 Kbps
Программа кодирования :VirtualDubModRus 1.5.10.2 (build 2542/release)
Библиотека кодирования :VirtualDubMod build 2542/release

Видео
Идентификатор :0
Формат :MPEG-4 Visual
Параметр BVOP формата :Yes
Параметр Qpel формата :No
Параметр GMC формата :0
Параметр Matrix формата :Default (H.263)
Идентификатор кодека :DX50
Продолжительность :1h 29mn 0s 280ms
Битрейт :1 997 Kbps
Ширина :720 pixels
Высота :352 pixels
Соотношение сторон :2.045
Частота кадров :25.000 fps
Глубина цвета :8 bits
Подвыборка цветности :4:2:0
Цветовое пространство :YUV
Тип развертки :Progressive
Бит/(Пиксели*Кадры) :0.315
Размер потока :1.24 GiB (91%)
Библиотека кодирования :DivX503b2676p

Аудио #1
Идентификатор :1
Формат :AC-3
Формат/Информация :Audio Coding 3
Идентификатор кодека :2000
Продолжительность :01:29:00.256
Вид битрейта :Constant
Битрейт :192 Kbps
Канал(ы) :2 channels
Расположение каналов :Front: L R
Частота :48.0 KHz
Битовая глубина :16 bits
Метод сжатия :Lossy
Размер потока :122 MiB (9%)



Тех. данные:
Качество:DVDRip
Продолжительность:01:29:00 час

Формат: AVI
Видео кодек: DivX
Аудио кодек: AC3
Видео: 720 x 352 (2.045), 25.000 fps, 1 997 Kbps, 0.315 bit/pixel
Аудио : 48.0 KHz, A
2743a325f97bef477a274026a991cf28165ce945Старомодная комедия (Эра Савельева, Татьяна Березанцева, мелодрама, 1978) [DVDRip, Не требуется] Старомодная комедия (Эра Савельева, Татьяна Березанцева, мелодрама, 1978) [DVDRip, Не требуется] " />

Аплоадер: Админ, дата: 22-12-2012, 20:45, торрент скачан: 359 раз

Понравилась раздача? Посмотрите эти:
  • Наследница по прямой (Сергей Соловьев, мелодрама, 1982) [DVDRip, Не требует ...
  • На подмостках сцены (Константин Юдин, драма, комедия, 1956) [DVDRip, Не тре ...
  • Журавушка (Николай Москаленко, драма, мелодрама, 1968) [DVDRip, Не требуетс ...
  • Человек, которому везло (Константин Ершов, драма, 1978) [DVDRip, Не требует ...
  • Начало (Глеб Панфилов, мелодрама, комедия, 1970) [DVDRip, Не требуется]
  • Дама с собачкой (Иосиф Хейфиц, драма, мелодрама, 1959) [DVDRip, Не требуетс ...
  • Выйти замуж за капитана (Виталий Мельников, мелодрама, комедия, 1985) [DVDR ...
  • Приключения Толи Клюквина (Виктор Эйсымонт, комедия, семейный, 1964) [DVDRi ...
  • Иван да Марья (Борис Рыцарев, фэнтези, мелодрама, комедия, семейный, музыка ...
  • Завтрак на траве (Николай Александрович, детский, комедия, 1979) [DVDRip, Н ...
  • Комедия ошибок (2 части из 2) (Вадим Гаузнер, комедия, 1978) [DVDRip, Не тр ...
  • Карнавал (2 части из 2) (Татьяна Лиознова, мюзикл, комедия, 1981) [DVDRip, ...
  • Дуэнья (Михаил Григорьев, комедия, история, 1978) [DVDRip, Не требуется]
  • Сватовство гусара (Светлана Дружинина, мюзикл, мелодрама, комедия, 1979) [D ...
  • Чайка (Юлий Карасик, драма, 1972) [DVDRip, Не требуется]
  • Бабушки надвое сказали (Валерий Харченко, Юрий Клебанов, комедия, 1979) [DV ...
  • Майская ночь, или Утопленница (Александр Роу, фэнтези, комедия, 1952) [DVDR ...
  • Уходя - уходи (Виктор Трегубович, комедия, 1978) [DVDRip, Не требуется]
  • Шла собака по роялю (Владимир Грамматиков, мелодрама, 1978) [DVDRip, Не тре ...
  • Ханума (2 части из 2) (Георгий Товстоногов, мюзикл, комедия, 1978) [DVDRip, ...
  • Проделки в старинном духе (Александр Панкратов, комедия, 1986) [DVDRip, Не ...
  • Хозяин и слуга (Дмитрий Кесаянц, короткометражка, комедия, 1963) [DVDRip, Н ...
  • Здравствуйте, я ваша тетя! (Виктор Титов, комедия, 1974) [DVDRip, Не требуе ...
  • Шумный день (Анатолий Эфрос, Георгий Натансон, мелодрама, комедия, 1960) [D ...
  • К Черному морю (Андрей Тутышкин, мелодрама, комедия, 1957) [DVDRip, Не треб ...
  • Информация
    Посетители, находящиеся в группе Гости, не могут оставлять комментарии к данной публикации.