вход на сайт

Имя пользователя :
Пароль :

Восстановление пароля Регистрация
Пятый океан (Исидор Анненский, драма, 1940) [DVDRip, Не требуется]
Рейтинг:
(голосов: 1)



[img]{THEME}/images/logopost.png[/img]



Пятый океан

Год выпуска: 1940
Страна: СССР
Производство: Киевская киностудия
Жанр: драма

Режиссёр: Исидор Анненский
В ролях: Андрей Абрикосов, Петр Алейников, Андрей Максимов, Иван Новосельцев, Василий Зайчиков, Анастасия Зуева, Дмитрий Капка, Александра Попова, Евгения Горкуша, О. Шахет

Перевод: Не требуется
Субтитры: Отсутствуют

Описание:
В конце тридцатых годов мечтой советского человека было небо, воздушный океан. Десятки аэроклубов открывались по всей стране, через считанные месяцы их выпускники будут бомбить фрица на фанерных птицах. Охотник из тайги заканчивает летную школу и совершает первые боевые вылеты.


Дополнительно:
MediaInfo ▼Text
Общее
Полное имя :K:Пятый океанPyatyy okean.avi
Формат :AVI
Размер :1.09 GiB
Продолжительность :01:13:48.640
Общий поток :2 109 Kbps
Библиотека кодирования :VirtualDub build 24442/release

Видео
Идентификатор :0
Формат :MPEG-4 Visual
Параметр BVOP формата :1
Параметр Qpel формата :No
Параметр GMC формата :0
Параметр Matrix формата :Default (H.263)
Идентификатор кодека :DX50
Продолжительность :1h 13mn 48s 640ms
Битрейт :1 971 Kbps
Ширина :704 pixels
Высота :512 pixels
Соотношение сторон :1.375
Частота кадров :25.000 fps
Глубина цвета :8 bits
Подвыборка цветности :4:2:0
Цветовое пространство :YUV
Тип развертки :Progressive
Бит/(Пиксели*Кадры) :0.219
Размер потока :1.02 GiB (93%)
Библиотека кодирования :DivX503b1988p

Аудио #1
Идентификатор :1
Формат :MPEG Audio
Идентификатор кодека :55
Продолжительность :01:13:48.593
Вид битрейта :Constant
Битрейт :128 Kbps
Канал(ы) :2 channels
Частота :48.0 KHz
Метод сжатия :Lossy
Размер потока :67.6 MiB (6%)Тех. данные:
Качество:DVDRip
Продолжительность:01:13:40 час

Формат: AVI
Видео кодек: DivX
Аудио кодек: MPA1L3
Видео: 704 x 512 (1.375), 25.000 fps, 1 971 Kbps, 0.219 bit/pixel
Аудио : 48.0 KHz, , 2 channels (), 128 Kbps



abac01bedf1489ca8e469045242bd407e7e0f2c8Пятый океан (Исидор Анненский, драма, 1940) [DVDRip, Не требуется] Пятый океан (Исидор Анненский, драма, 1940) [DVDRip, Не требуется] " />

Аплоадер: Админ, дата: 22-12-2012, 20:15, торрент скачан: 359 раз

Понравилась раздача? Посмотрите эти:
  • Василий и Василиса (Ирина Поплавская, драма, мелодрама, биография, 1981) [D ...
  • Нейтральные воды (Владимир Беренштейн, драма, 1968) [DVDRip, Не требуется]
  • До первой крови (Владимир Фокин, драма, 1989) [DVDRip, Не требуется]
  • Вы чье, старичье? (Иосиф Хейфиц, драма, 1988) [DVDRip, Не требуется]
  • Человек в футляре (Исидор Анненский, драма, комедия, 1939) [DVDRip, Не треб ...
  • Хозяин тайги (Владимир Назаров, криминал, 1968) [DVDRip, Не требуется]
  • Сапоги (Владимир Немоляев, короткометражка, драма, комедия, 1957) [DVDRip, ...
  • Иваново детство (Андрей Тарковский, драма, военный, 1962) [DVDRip, Не требу ...
  • Егерь (Герман Ливанов, драма, экранизация, 1960) [DVDRip, Не требуется]
  • Освобождение (Александр Довженко, Юлия Солнцева, документальный, 1940) [DVD ...
  • Моя любовь (Владимир Корш-Саблин, мюзикл, мелодрама, комедия, 1940) [DVDRip ...
  • Капитанская дочка (Владимир Каплуновский, драма, 1958) [DVDRip, Не требуетс ...
  • Магазинчик за углом / The Shop Around the Corner (Эрнст Любич, драма, мелод ...
  • Странный груз / Strange Cargo (Фрэнк Борзеги, драма, мелодрама, 1940) [DVDR ...
  • Свадьба (Исидор Анненский, комедия, 1944) [DVDRip, Не требуется]
  • Печники (Виктор Храмов, драма, 1982) [DVDRip, Не требуется]
  • Танкер «Дербент» (Александр Файнциммер, приключения, 1940) [DVDRip, Не треб ...
  • Трактористы (Иван Пырьев, драма, комедия, 1939) [DVDRip, Не требуется]
  • Первый троллейбус (Исидор Анненский, Мелодрама, 1963) [DVDRip, Оригинал]
  • Анна на шее (Исидор Анненский, драма, история, 1954) [DVDRip, Не требуется] ...
  • Океан (Михаил Косырев-Нестеров, драма, 2008) [DVDRip, Профессиональный (одн ...
  • Гибель «Орла» (Василий Журавлев, приключения, 1940) [DVDRip, Не требуется]
  • Голубые молнии (Исаак Шмарук, драма, приключения, 1978) [DVDRip, Не требует ...
  • Суворов (Михаил Доллер, Всеволод Пудовкин, драма, военный, биография, истор ...
  • За облаками – небо (Юрий Егоров, драма, 1973) [DVDRip, Не требуется]
  • Информация
    Посетители, находящиеся в группе Гости, не могут оставлять комментарии к данной публикации.