вход на сайт

Имя пользователя :
Пароль :

Восстановление пароля Регистрация
Путь к причалу (Георгий Данелия, драма, 1963) [DVDRip, Не требуется]
Рейтинг:
(голосов: 1)



[img]{THEME}/images/logopost.png[/img]



Путь к причалу

Год выпуска: 1963
Страна: СССР
Производство: Мосфильм
Жанр: драма

Режиссёр: Георгий Данелия
В ролях: Александр Метелкин, Борис Андреев, Олег Жаков, Любовь Соколова, Валентин Никулин, Бруно Оя, Ада Шереметьева, Игорь Боголюбов, Григорий Гай, Виктор Колпаков

Перевод: Не требуется
Субтитры: Отсутствуют

Описание:
В поисках настоящей жизни 15-летний Васька отправляется в Арктику, где устраивается работать на морской спасательный буксир «Кола». Непросто выстраиваются отношения наивного парнишки с экипажем — матерыми «морскими волками». Однажды команда получает задание — отбуксировать с Новой Земли разбитый во время войны корабль «Полоцк»…


Дополнительно:
MediaInfo ▼Text
Общее
Полное имя :J:Путь к причалуПуть к причалу.DVDRip.avi
Формат :AVI
Размер :1.36 GiB
Продолжительность :01:23:42.760
Общий поток :2 333 Kbps
Программа кодирования :VirtualDubModRus 1.5.10.2 (build 2542/release)
Библиотека кодирования :VirtualDubMod build 2542/release

Видео
Идентификатор :0
Формат :MPEG-4 Visual
Параметр BVOP формата :1
Параметр Qpel формата :No
Параметр GMC формата :0
Параметр Matrix формата :Default (H.263)
Идентификатор кодека :DX50
Продолжительность :1h 23mn 42s 760ms
Битрейт :2 100 Kbps
Ширина :688 pixels
Высота :512 pixels
Соотношение сторон :1.344
Частота кадров :25.000 fps
Глубина цвета :8 bits
Подвыборка цветности :4:2:0
Цветовое пространство :YUV
Тип развертки :Progressive
Бит/(Пиксели*Кадры) :0.238
Размер потока :1.23 GiB (90%)
Библиотека кодирования :DivX503b2676p

Аудио #1
Идентификатор :1
Формат :AC-3
Формат/Информация :Audio Coding 3
Идентификатор кодека :2000
Продолжительность :01:23:42.560
Вид битрейта :Constant
Битрейт :224 Kbps
Канал(ы) :1 channel
Расположение каналов :Front: C
Частота :48.0 KHz
Битовая глубина :16 bits
Метод сжатия :Lossy
Размер потока :134 MiB (10%)Тех. данные:
Качест
b3beedc17c8e7fee84ef83de0b67973c94355bebПуть к причалу (Георгий Данелия, драма, 1963) [DVDRip, Не требуется] Путь к причалу (Георгий Данелия, драма, 1963) [DVDRip, Не требуется] " />

Аплоадер: Админ, дата: 22-12-2012, 20:11, торрент скачан: 359 раз

Понравилась раздача? Посмотрите эти:
  • Сережа (Георгий Данелия, Игорь Таланкин, драма, 1960) [DVDRip, Не требуется ...
  • Журавушка (Николай Москаленко, драма, мелодрама, 1968) [DVDRip, Не требуетс ...
  • Если ты прав... (Юрий Егоров, мелодрама, 1963) [DVDRip, Не требуется]
  • Борец и клоун (Борис Барнет, Константин Юдин, драма, спорт, 1957) [DVDRip, ...
  • Штрафной удар (Вениамин Дорман, комедия, спорт, 1963) [DVDRip, Не требуется ...
  • Убийство на улице Данте (Михаил Ромм, драма, 1956) [DVDRip, Не требуется]
  • Совсем пропащий (Георгий Данелия, приключения, 1973) [DVDRip, Не требуется] ...
  • Путь в "Сатурн" (Виллен Азаров, военный, 1967) [DVDRip, Не требуется]
  • Афоня (Георгий Данелия, драма, мелодрама, комедия, 1975) [DVDRip, Не требуе ...
  • Оптимистическая трагедия (Самсон Самсонов, драма, военный, история, 1963) [ ...
  • Осенний марафон (Георгий Данелия, драма, мелодрама, комедия, 1979) [DVDRip, ...
  • Комиссар (Александр Аскольдов, драма, военный, 1967) [DVDRip, Не требуется] ...
  • Тропой бескорыстной любви (Агаси Бабаян, драма, 1972) [DVDRip, Не требуется ...
  • Паспорт (Георгий Данелия, комедия, 1990) [DVDRip, Не требуется]
  • Степь (2 части из 2) (Сергей Бондарчук, драма, история, 1977) [DVDRip, Не т ...
  • Сотрудник ЧК (Борис Волчек, боевик, история, 1963) [DVDRip, Не требуется]
  • Слезы капали (Георгий Данелия, драма, 1982) [DVDRip, Не требуется]
  • Тридцать три (Георгий Данелия, комедия, 1965) [DVDRip, Не требуется]
  • Путь корабля (Юрий Тарич, драма, приключения, 1935) [DVDRip, Не требуется]
  • При исполнении служебных обязанностей (Илья Гурин, фантастика, драма, 1963) ...
  • Деловые люди (полная реставрация) (Леонид Гайдай, комедия, драма, 1962) [DV ...
  • Хозяин и слуга (Дмитрий Кесаянц, короткометражка, комедия, 1963) [DVDRip, Н ...
  • Белая акация (Георгий Натансон, комедия, 1958) [DVDRip, Не требуется]
  • Большой «Фитиль» (Мери Анджапаридзе, Эдуард Бочаров, Софья Милькина, комеди ...
  • Мексиканец (Владимир Каплуновский, драма, 1955) [DVDRip, Не требуется]
  • Информация
    Посетители, находящиеся в группе Гости, не могут оставлять комментарии к данной публикации.