вход на сайт

Имя пользователя :
Пароль :

Восстановление пароля Регистрация
Прощайте, фараоны! (Давид Черкасский, Вячеслав Винник, комедия, 1974) [DVDRip, Не требуется]
Рейтинг:
(голосов: 1)



[img]{THEME}/images/logopost.png[/img]



Прощайте, фараоны!

Год выпуска: 1974
Страна: СССР
Производство: Одесская киностудия
Жанр: комедия

Режиссёр: Давид Черкасский, Вячеслав Винник
В ролях: Николай Слёзка, Людмила Алфимова, Владимир Ячминский, Людмила Приходько, Наталья Радолицкая, Николай Шутько, Нонна Копержинская, Евгений Коваленко, Татьяна Алексеева, Владимир Волков

Перевод: Не требуется
Субтитры: Отсутствуют

Описание:
Комедия о том, как мужчины, уставшие от упреков жен, поменялись местами со своими подругами. Все, что произошло потом, помогло мужчинам оценить своих жен, так как оказалось, что выполнять женские обязанности совсем нелегкое дело.


Дополнительно:
MediaInfo ▼Text
Общее
Полное имя :L:3.РаздачаПрощайте, фараоны!proshaite_faraonu.avi
Формат :AVI
Размер :1.46 GiB
Продолжительность :01:14:57.600
Общий поток :2 784 Kbps
Программа кодирования :VirtualDubMod 1.5.10.2 (build 2540/release)
Библиотека кодирования :VirtualDubMod build 2540/release

Видео
Идентификатор :0
Формат :MPEG-4 Visual
Профиль формата :Advanced [email protected]
Параметр BVOP формата :2
Параметр Qpel формата :No
Параметр GMC формата :0
Параметр Matrix формата :Default (MPEG)
Идентификатор кодека :XVID
Продолжительность :1h 14mn 57s 600ms
Битрейт :2 326 Kbps
Ширина :704 pixels
Высота :368 pixels
Соотношение сторон :1.913
Частота кадров :25.000 fps
Глубина цвета :8 bits
Подвыборка цветности :4:2:0
Цветовое пространство :YUV
Тип развертки :Progressive
Бит/(Пиксели*Кадры) :0.359
Размер потока :1.22 GiB (84%)
Библиотека кодирования :XviD0050

Аудио #1
Идентификатор :1
Формат :AC-3
Формат/Информация :Audio Coding 3
Идентификатор кодека :2000
Продолжительность :01:14:57.600
Вид битрейта :Constant
Битрейт :448 Kbps
Канал(ы) :2 channels
Расположение каналов :Front: L R
Частота :48.0 KHz
Битовая глубина :16 bits
Метод сжатия :Lossy
Размер потока :240 MiB
43b69afd42c9a6aedcc2e4d0caf2f559672cc482Прощайте, фараоны! (Давид Черкасский, Вячеслав Винник, комедия, 1974) [DVDRip, Не требуется] Прощайте, фараоны! (Давид Черкасский, Вячеслав Винник, комедия, 1974) [DVDRip, Не требуется] " />

Аплоадер: Админ, дата: 22-12-2012, 20:06, торрент скачан: 359 раз

Понравилась раздача? Посмотрите эти:
  • Люди и манекены (4 части из 4) (Виктор Храмов, Аркадий Райкин, комедия, 197 ...
  • Зимородок (Вячеслав Никифоров, военный, 1972) [DVDRip, Не требуется]
  • Два гусара (Вячеслав Криштофович, мелодрама, 1984) [DVDRip, Не требуется]
  • Шел четвертый год войны... (Георгий Николаенко, военный, 1983) [DVDRip, Не ...
  • Иван да Марья (Борис Рыцарев, фэнтези, мелодрама, комедия, семейный, музыка ...
  • Завтрак на траве (Николай Александрович, детский, комедия, 1979) [DVDRip, Н ...
  • Моя любовь (Владимир Корш-Саблин, мюзикл, мелодрама, комедия, 1940) [DVDRip ...
  • Маленький гигант большого секса (Николай Досталь, Комедия, 1992) [DVDRip, Н ...
  • Левша (Сергей Овчаров, драма, комедия, 1986) [DVDRip, Не требуется]
  • Капитанская дочка (Владимир Каплуновский, драма, 1958) [DVDRip, Не требуетс ...
  • Дуэнья (Михаил Григорьев, комедия, история, 1978) [DVDRip, Не требуется]
  • Печники (Виктор Храмов, драма, 1982) [DVDRip, Не требуется]
  • Дача (Константин Воинов, комедия, 1974) [DVDRip, Не требуется]
  • Небывальщина (Сергей Овчаров, комедия, 1983) [DVDRip, Не требуется]
  • Трест, который лопнул (3 части из 3) (Александр Павловский, мюзикл, комедия ...
  • Шельменко-денщик (Андрей Тутышкин, мюзикл, комедия, 1971) [DVDRip, Не требу ...
  • Уходя - уходи (Виктор Трегубович, комедия, 1978) [DVDRip, Не требуется]
  • Здравствуйте, я ваша тетя! (Виктор Титов, комедия, 1974) [DVDRip, Не требуе ...
  • Ключи от неба (Виктор Иванов, комедия, 1964) [DVDRip, Не требуется]
  • Кутузов (Владимир Петров, драма, 1943) [DVDRip, Не требуется]
  • Информация
    Посетители, находящиеся в группе Гости, не могут оставлять комментарии к данной публикации.