вход на сайт

Имя пользователя :
Пароль :

Восстановление пароля Регистрация
Ханума (2 части из 2) (Георгий Товстоногов, мюзикл, комедия, 1978) [DVDRip, Не требуется]
Рейтинг:
(голосов: 1)



[img]{THEME}/images/logopost.png[/img]



Ханума (2 части из 2)

Год выпуска: 1978
Страна: СССР
Производство: Гостелерадио, Ленфильм
Жанр: мюзикл, комедия

Режиссёр: Георгий Товстоногов
В ролях: Людмила Макарова, Владислав Стржельчик, Вадим Медведев, Валентина Ковель, Николай Трофимов, Геннадий Богачёв, Всеволод Кузнецов, Леонид Неведомский, Мария Призван-Соколова, Георгий Штиль

Перевод: Не требуется
Субтитры: Отсутствуют

Описание:
Состоятельный тифлисский купец мечтает выдать свою дочь Сону замуж за разорившегося князя, чтобы получить дворянское звание. Между тем Сона в отчаянии. Она влюблена в своего учителя музыки и французского языка и не хочет выходить замуж за престарелого князя…


Дополнительно:
MediaInfo ▼Text
"1 часть" ▼Общее
Полное имя :K:ХанумаHanuma1_Hanuma_DVDRip_1.46GB.avi
Формат :AVI
Размер :787 MiB
Продолжительность :01:13:06.840
Общий поток :1 505 Kbps
Программа кодирования :VirtualDubModRus 1.5.10.2 (build 2542/release)
Библиотека кодирования :VirtualDubMod build 2542/release

Видео
Идентификатор :0
Формат :MPEG-4 Visual
Параметр BVOP формата :1
Параметр Qpel формата :No
Параметр GMC формата :0
Параметр Matrix формата :Default (H.263)
Идентификатор кодека :DX50
Продолжительность :1h 13mn 6s 840ms
Битрейт :1 367 Kbps
Ширина :656 pixels
Высота :496 pixels
Соотношение сторон :1.323
Частота кадров :25.000 fps
Глубина цвета :8 bits
Подвыборка цветности :4:2:0
Цветовое пространство :YUV
Тип развертки :Progressive
Бит/(Пиксели*Кадры) :0.168
Размер потока :715 MiB (91%)
Библиотека кодирования :DivX503b2676p

Аудио #1
Идентификатор :1
Формат :MPEG Audio
Идентификатор кодека :55
Продолжительность :01:13:06.840
Вид битрейта :Constant
Битрейт :128 Kbps
Канал(ы) :2 channels
Частота :48.0 KHz
Метод сжатия :Lossy
Размер потока :66.9 MiB (9%)

"2 часть" ▼Общее
Полное имя :K:ХанумаHanuma2_Hanuma_DVDRip_1.46GB.avi
Формат &nbs
6e149213b6e5403442aebb2bcf3355ec2c531ea3Ханума (2 части из 2) (Георгий Товстоногов, мюзикл, комедия, 1978) [DVDRip, Не требуется] Ханума (2 части из 2) (Георгий Товстоногов, мюзикл, комедия, 1978) [DVDRip, Не требуется] " />

Аплоадер: Админ, дата: 21-12-2012, 18:37, торрент скачан: 359 раз

Понравилась раздача? Посмотрите эти:
  • Дни хирурга Мишкина (3 части из 3) (Вадим Зобин, драма, 1967) [DVDRip, Не т ...
  • Биндюжник и король (2 части из 2) (Владимир Алеников, мюзикл, драма, комеди ...
  • Ошибка резидента (2 части из 2) (Вениамин Дорман, детектив, 1968) [DVDRip, ...
  • Судьба резидента (2 части из 2) (Вениамин Дорман, детектив, приключения, 19 ...
  • Возвращение резидента (2 части из 2) (Вениамин Дорман, триллер, 1982) [DVDR ...
  • Конец операции «Резидент» (2 части из 2) (Вениамин Дорман, боевик, приключе ...
  • Люди и манекены (4 части из 4) (Виктор Храмов, Аркадий Райкин, комедия, 197 ...
  • Дон Сезар де Базан (2 части из 2) (Ян Фрид, мюзикл, комедия, 1989) [DVDRip, ...
  • Бой после победы (2 части из 2) (Виллен Азаров, триллер, военный, 1972) [DV ...
  • Покровские ворота (2 части из 2) (Михаил Козаков, мюзикл, драма, мелодрама, ...
  • Небесные ласточки (2 части из 2) (Леонид Квинихидзе, мюзикл, драма, комедия ...
  • Комедия ошибок (2 части из 2) (Вадим Гаузнер, комедия, 1978) [DVDRip, Не тр ...
  • Карнавал (2 части из 2) (Татьяна Лиознова, мюзикл, комедия, 1981) [DVDRip, ...
  • А.П. Чехов. (Экранизация рассказов) (Георгий Товстоногов, Герман Ливанов, К ...
  • Степь (2 части из 2) (Сергей Бондарчук, драма, история, 1977) [DVDRip, Не т ...
  • Табачный капитан (Игорь Усов, мюзикл, комедия, история, 1972) [DVDRip, Не т ...
  • Трест, который лопнул (3 части из 3) (Александр Павловский, мюзикл, комедия ...
  • Сильва (2 части из 2) (Ян Фрид, мюзикл, комедия, 1981) [DVDRip, Не требуетс ...
  • Сибириада (4 части из 4) (Андрей Кончаловский, драма, военный, история, 197 ...
  • Приморский бульвар (2 части из 2) (Александр Полынников, мюзикл, комедия, 1 ...
  • 31 июня (2 части из 2) (Леонид Квинихидзе, мюзикл, фэнтези, мелодрама, 1978 ...
  • Подпольный обком действует (4 части из 4) (Анатолий Буковский, военный, 197 ...
  • Ханума (Георгий Товстоногов, Юрий Аксенов, Комедия, 1978 ) [DVDRip]
  • Гений (2 части из 2) (Виктор Сергеев, Комедия, криминал, 1991) [DVDRip, Не ...
  • Дядюшкин сон (2 части из2) (Александр Орлов, драма, комедия, 1981) [DVDRip, ...
  • Информация
    Посетители, находящиеся в группе Гости, не могут оставлять комментарии к данной публикации.