вход на сайт

Имя пользователя :
Пароль :

Восстановление пароля Регистрация
Скверный анекдот (Александр Алов, Владимир Наумов, комедия, 1966) [DVDRip, Не требуется]
Рейтинг:
(голосов: 1)



[img]{THEME}/images/logopost.png[/img]



Скверный анекдот

Год выпуска: 1966
Страна: СССР
Производство: Мосфильм
Жанр: комедия

Режиссёр: Александр Алов, Владимир Наумов
В ролях: Евгений Евстигнеев, Виктор Сергачев, Елизавета Никищихина, Майя Булгакова, Зоя Фёдорова, Глеб Стриженов, Георгий Георгиу, Александр Грузинский, Елена Понсова, Павел Павленко

Перевод: Не требуется
Субтитры: Отсутствуют

Описание:
`Этот скверный анекдот, — с иронией пишет Ф. М. Достоевский, — случился именно в то самое время, когда началось такой неудержимой силы и с таким трогательно наивным порывом возрождение нашего любезного отечества всех доблестных сынов его к новым судьбам инадеждам…` В чем же, собственно, анекдот? Посмотрите фильм…


Дополнительно:
MediaInfo ▼Text
Общее
Полное имя :K:Скверный анекдотSkvernyy anekdot.avi
Формат :AVI
Размер :745 MiB
Продолжительность :01:36:16.840
Общий поток :1 082 Kbps
Программа кодирования :VirtualDubModRus 1.5.10.2 (build 2542/release)
Библиотека кодирования :VirtualDubMod build 2542/release

Видео
Идентификатор :0
Формат :MPEG-4 Visual
Параметр BVOP формата :1
Параметр Qpel формата :No
Параметр GMC формата :0
Параметр Matrix формата :Default (H.263)
Идентификатор кодека :DX50
Продолжительность :1h 36mn 16s 840ms
Битрейт :944 Kbps
Ширина :656 pixels
Высота :288 pixels
Соотношение сторон :2.278
Частота кадров :25.000 fps
Глубина цвета :8 bits
Подвыборка цветности :4:2:0
Цветовое пространство :YUV
Тип развертки :Progressive
Бит/(Пиксели*Кадры) :0.200
Размер потока :650 MiB (87%)
Библиотека кодирования :DivX503b2676p

Аудио #1
Идентификатор :1
Формат :MPEG Audio
Идентификатор кодека :55
Продолжительность :01:36:16.272
Вид битрейта :Constant
Битрейт :128 Kbps
Канал(ы) :2 channels
Частота :48.0 KHz
Метод сжатия :Lossy
Размер потока :88.1 MiB (12%)



Тех. данные:
Качество:DVDRip
Продолжительность:01:36:10 час

Формат: AVI
Видео кодек: DivX
Аудио кодек: MPA1L3
Видео: 656 x 288 (2.25:1), 25.000 fps, 944 Kbps, 0
c9cd54100515d821809bd2d8fa4aa96d0792a130Скверный анекдот (Александр Алов, Владимир Наумов, комедия, 1966) [DVDRip, Не требуется] Скверный анекдот (Александр Алов, Владимир Наумов, комедия, 1966) [DVDRip, Не требуется] " />

Аплоадер: Админ, дата: 21-12-2012, 18:34, торрент скачан: 359 раз

Понравилась раздача? Посмотрите эти:
  • Вертикаль (Борис Дуров, Станислав Говорухин, приключения, 1966) [DVDRip, Не ...
  • Нейтральные воды (Владимир Беренштейн, драма, 1968) [DVDRip, Не требуется]
  • Люди и манекены (4 части из 4) (Виктор Храмов, Аркадий Райкин, комедия, 197 ...
  • Выстрел (Наум Трахтенберг, драма, 1966) [DVDRip, Не требуется]
  • Штрафной удар (Вениамин Дорман, комедия, спорт, 1963) [DVDRip, Не требуется ...
  • Шанс (Александр Майоров, фантастика, фэнтези, мелодрама, комедия, приключен ...
  • Четвертый (Александр Столпер, драма, 1972) [DVDRip, Не требуется]
  • Пакет (Владимир Назаров, комедия, приключения, семейный, 1965) [DVDRip, Не ...
  • Гиперболоид инженера Гарина (Александр Гинцбург, фантастика, 1965) [DVDRip, ...
  • Лес (Владимир Мотыль, драма, 1980) [DVDRip, Не требуется]
  • Бег (2 части из 2) (Александр Алов, Владимир Наумов, драма, военный, истори ...
  • Порожний рейс (Владимир Венгеров, драма, 1962) [DVDRip, Не требуется]
  • Сотрудник ЧК (Борис Волчек, боевик, история, 1963) [DVDRip, Не требуется]
  • Майская ночь, или Утопленница (Александр Роу, фэнтези, комедия, 1952) [DVDR ...
  • Проделки в старинном духе (Александр Панкратов, комедия, 1986) [DVDRip, Не ...
  • Бег (Александр Алов, Владимир Наумов, драма, военный, история, 1970) [DVD-9 ...
  • Легенда о Тиле (Александр Алов, Владимир Наумов, экранизация, исторический, ...
  • Мир входящему (Александр Алов, Владимир Наумов , Драма,Военный, 1961) [DVDR ...
  • Донская повесть (Владимир Фетин, драма, 1964) [DVDRip, Не требуется]
  • Драгоценный подарок (Александр Роу, семейный, 1956) [DVDRip, Не требуется]
  • Чудак-человек (Владимир Кочетов, комедия, 1962) [DVDRip, Не требуется]
  • Дядюшкин сон (2 части из2) (Александр Орлов, драма, комедия, 1981) [DVDRip, ...
  • Вера, надежда, любовь (Владимир Грамматиков, приключения, 1984) [DVDRip, Не ...
  • Мексиканец (Владимир Каплуновский, драма, 1955) [DVDRip, Не требуется]
  • Легенда о Тиле. Фильм первый – Пепел Клааса // Легенда о Тиле. Фильм второй ...
  • Информация
    Посетители, находящиеся в группе Гости, не могут оставлять комментарии к данной публикации.