вход на сайт

Имя пользователя :
Пароль :

Восстановление пароля Регистрация
Сибириада (4 части из 4) (Андрей Кончаловский, драма, военный, история, 1978) [DVDRip, Не требуется]
Рейтинг:
(голосов: 1)



[img]{THEME}/images/logopost.png[/img]



Сибириада (4 части из 4)

Год выпуска: 1978
Страна: СССР
Производство: Мосфильм, Satra, Совэкспортфильм
Жанр: драма, военный, история

Режиссёр: Андрей Кончаловский
В ролях: Наталья Андрейченко, Сергей Шакуров, Никита Михалков, Виталий Соломин, Владимир Самойлов, Паскаль Обье, Иван Дмитриев, Константин Григорьев, Людмила Гурченко, Павел Кадочников

Перевод: Не требуется
Субтитры: Отсутствуют

Описание:
В сибирской глухомани, среди тайги и болот, живут в небольшом селе Елань две семьи, издавна враждующие меж собой: «кулаки» Соломины и бедняки Устюжанины. И не ведают они до поры, что суждено им породниться, что вопреки всем ветрам истории судьба будет сталкивать их снова и снова, и в ненависти, и в любви; не ведают, какие кровавые, трагические события ждут их впереди.


Дополнительно:
MediaInfo ▼Text
"1 часть" ▼Общее
Полное имя :K:СибириадаSibiriada1_Sibiriada.avi
Формат :AVI
Размер :572 MiB
Продолжительность :01:06:53.760
Общий поток :1 195 Kbps
Программа кодирования :VirtualDubModRus 1.5.10.2 (build 2542/release)
Библиотека кодирования :VirtualDubMod build 2542/release

Видео
Идентификатор :0
Формат :MPEG-4 Visual
Профиль формата :Advanced [email protected]
Параметр BVOP формата :2
Параметр Qpel формата :No
Параметр GMC формата :0
Параметр Matrix формата :Default (MPEG)
Идентификатор кодека :XVID
Продолжительность :1h 6mn 53s 760ms
Битрейт :1 058 Kbps
Ширина :608 pixels
Высота :456 pixels
Соотношение сторон :1.333
Частота кадров :23.976 fps
Глубина цвета :8 bits
Подвыборка цветности :4:2:0
Цветовое пространство :YUV
Тип развертки :Progressive
Бит/(Пиксели*Кадры) :0.159
Размер потока :506 MiB (89%)
Библиотека кодирования :XviD0050

Аудио #1
Идентификатор :1
Формат :MPEG Audio
Идентификатор кодека :55
Продолжительность :01:06:53.760
Вид битрейта :Constant
Битрейт :128 Kbps
Канал(ы) :2 channels
Частота :48.0 KHz
Метод сжатия :Lossy
Размер потока :61.2 MiB (11%)

"2 часть" ▼Общее
Полное
bef72ce771e01677ec3842a3ccd69f1be3780453Сибириада (4 части из 4) (Андрей Кончаловский, драма, военный, история, 1978) [DVDRip, Не требуется] Сибириада (4 части из 4) (Андрей Кончаловский, драма, военный, история, 1978) [DVDRip, Не требуется] " />

Аплоадер: Админ, дата: 21-12-2012, 18:31, торрент скачан: 359 раз

Понравилась раздача? Посмотрите эти:
  • Дни хирурга Мишкина (3 части из 3) (Вадим Зобин, драма, 1967) [DVDRip, Не т ...
  • Будни и праздники Серафимы Глюкиной (2 части из 2) (Ростислав Горяев, драма ...
  • Мир дому твоему (2 части из 2) (Константин Райкин, Аркадий Райкин, Марк Орл ...
  • Дон Сезар де Базан (2 части из 2) (Ян Фрид, мюзикл, комедия, 1989) [DVDRip, ...
  • Бой после победы (2 части из 2) (Виллен Азаров, триллер, военный, 1972) [DV ...
  • Балтийское небо (2 части из 2) (Владимир Венгеров, драма, военный, история, ...
  • Живые и мертвые (2 части из 2) (Александр Столпер, драма, военный, 1963) [D ...
  • До последней капли крови (2 части из 2) / Do krwi ostatiej (Ежи Гоффман, др ...
  • Операция «Трест» (4 части из 4) (Сергей Колосов, приключения, история, 1967 ...
  • Объяснение в любви (2 части из 2) (Илья Авербах, мелодрама, 1977) [DVDRip, ...
  • Сибириада
  • Царь Иван Грозный (2 части из 2) (Геннадий Васильев, Драма, история, 1991) ...
  • Адъютант его превосходительства (5 частей из 5) (Евгений Ташков, мелодрама, ...
  • Степь (2 части из 2) (Сергей Бондарчук, драма, история, 1977) [DVDRip, Не т ...
  • Ханума (2 части из 2) (Георгий Товстоногов, мюзикл, комедия, 1978) [DVDRip, ...
  • Почти смешная история (2 части из 2) (Петр Фоменко, мелодрама, комедия, 197 ...
  • Председатель (2 части из 2) (Алексей Салтыков, драма, 1964) [DVDRip, Не тре ...
  • Тихий Дон (3 части из 3) (Сергей Герасимов, драма, военный, 1957) [DVDRip, ...
  • Подпольный обком действует (4 части из 4) (Анатолий Буковский, военный, 197 ...
  • В лесах под Ковелем (3 части из 3) (Юрий Тупицкий, военный, история, 1984) ...
  • Сибириада (Андрей Михалков-Кончаловский, драма, 1978) [DVDRip, не требуется ...
  • Дядюшкин сон (2 части из2) (Александр Орлов, драма, комедия, 1981) [DVDRip, ...
  • Зверобой (2 части из 2) (Андрей Ростоцкий, приключения, 1990) [DVDRip, Не т ...
  • Моонзунд (2 части из 2) (Александр Муратов, драма, мелодрама, военный, исто ...
  • Неизвестный солдат (3 части из 3) (Григорий Аронов, Вадим Зобин, драма, 198 ...
  • Информация
    Посетители, находящиеся в группе Гости, не могут оставлять комментарии к данной публикации.