вход на сайт

Имя пользователя :
Пароль :

Восстановление пароля Регистрация
Робинзон Крузо (Александр Андриевский, драма, приключения, 1946) [DVDRip, Не требуется]
Рейтинг:
(голосов: 1)



[img]{THEME}/images/logopost.png[/img]



Робинзон Крузо

Год выпуска: 1946
Страна: СССР
Производство: Тбилисская киностудия, Stereokino
Жанр: драма, приключения

Режиссёр: Александр Андриевский
В ролях: Павел Кадочников, Юрий Любимов, Анатолий Смиранин, Е. Саникидзе, В. Павленко

Перевод: Не требуется
Субтитры: Отсутствуют

Описание:
Робинзон Крузо в силу обстоятельств вынужден отправиться в морское путешествие простым моряком. Но его звезда оказалась несчастливой. Корабль потерпел катастрофу, и Робинзон Крузо попадает на необитаемый остров. Впереди — долгие годы опасных приключений и борьбы за жизнь.


Дополнительно:
MediaInfo ▼Text
Общее
Полное имя :L:3.РаздачаРобинзон КрузоRobinzon.Kruzo.1946.XviD.DVDRip.avi
Формат :AVI
Размер :1.27 GiB
Продолжительность :01:12:12.520
Общий поток :2 524 Kbps

Видео
Идентификатор :0
Формат :MPEG-4 Visual
Профиль формата :[email protected]
Параметр BVOP формата :No
Параметр Qpel формата :No
Параметр GMC формата :0
Параметр Matrix формата :Default (H.263)
Идентификатор кодека :XVID
Продолжительность :1h 12mn 12s 520ms
Битрейт :2 322 Kbps
Ширина :720 pixels
Высота :544 pixels
Соотношение сторон :1.324
Частота кадров :25.000 fps
Глубина цвета :8 bits
Подвыборка цветности :4:2:0
Цветовое пространство :YUV
Тип развертки :Progressive
Бит/(Пиксели*Кадры) :0.237
Размер потока :1.17 GiB (92%)
Библиотека кодирования :XviD0046

Аудио #1
Идентификатор :1
Формат :AC-3
Формат/Информация :Audio Coding 3
Идентификатор кодека :2000
Продолжительность :01:12:12.512
Вид битрейта :Constant
Битрейт :192 Kbps
Канал(ы) :2 channels
Расположение каналов :Front: L R
Частота :48.0 KHz
Битовая глубина :16 bits
Метод сжатия :Lossy
Размер потока :99.2 MiB (8%)Тех. данные:
Качество:DVDRip
Продолжительность:01:12:10 час

Формат: AVI
Видео кодек: XviD
Аудио кодек: AC3
Видео: 720 x 544
b64a8903ecb4fdf04cd7e63df09be0d507963667Робинзон Крузо (Александр Андриевский, драма, приключения, 1946) [DVDRip, Не требуется] Робинзон Крузо (Александр Андриевский, драма, приключения, 1946) [DVDRip, Не требуется] " />

Аплоадер: Админ, дата: 21-12-2012, 18:08, торрент скачан: 359 раз

Понравилась раздача? Посмотрите эти:
  • Четвертый (Александр Столпер, драма, 1972) [DVDRip, Не требуется]
  • Старшина (Николай Кошелев, драма, 1979) [DVDRip, Не требуется]
  • Михайло Ломоносов (Александр Иванов, драма, история, 1955) [DVDRip, Не треб ...
  • Комиссар (Александр Аскольдов, драма, военный, 1967) [DVDRip, Не требуется] ...
  • Князь Игорь (Роман Тихомиров, мюзикл, приключения, 1969) [DVDRip, Не требуе ...
  • Синьор Робинзон / Il signor Robinson, mostruosa storia damore e davventure ...
  • Жизнь и удивительные приключения Робинзона Крузо (Станислав Говорухин, прик ...
  • Первая перчатка (Андрей Фролов, мюзикл, мелодрама, комедия, спорт, 1946) [D ...
  • Мульт-Салют. 27 ч. из 30: Орлиное перо/Чемпион/Чужой голос/Зай и Чик/Два жа ...
  • Мульт-Салют. 28 ч. из 30: Тихая поляна/Снежные дорожки/Антошка/Два веселых ...
  • Мульт-Салют 1 ч. из 30: Павлиний хвост/Цветик-семицветик/Мойдодыр/Необыкнов ...
  • Совершенно серьезно (Леонид Гайдай, Эльдар Рязанов, Владимир Семаков, коме ...
  • Путь корабля (Юрий Тарич, драма, приключения, 1935) [DVDRip, Не требуется]
  • Похождения Насреддина (Наби Ганиев, комедия, 1946) [DVDRip, Не требуется]
  • Садко (Александр Птушко, фэнтези, приключения, 1952) [DVDRip, Не требуется] ...
  • Робинзон Крузо / Crusoe // Сезон 1, эпизоды с 1 по 13 (из 13) (драма, прикл ...
  • Робинзон Кузя (Анатолий Резников, мультфильм, короткометражка, детский, 197 ...
  • Робинзон Крузо / Robinson Crusoe (Луис Бунюэль, драма, приключения, 1954) [ ...
  • Робинзон Крузо / Robinson Crusoe (Род Харди, Джордж Миллер, драма, приключе ...
  • Адмирал Нахимов (Всеволод Пудовкин, драма, военный, биография, история, 194 ...
  • Информация
    Посетители, находящиеся в группе Гости, не могут оставлять комментарии к данной публикации.