вход на сайт

Имя пользователя :
Пароль :

Восстановление пароля Регистрация
У меня есть лев (2 части из 2) (Константин Бромберг, драма, комедия, приключения, 1976) [DVDRip, Не требуется]
Рейтинг:
(голосов: 1)



[img]{THEME}/images/logopost.png[/img]



У меня есть лев (2 части из 2)

Год выпуска: 1976
Страна: СССР
Производство: ТО Экран
Жанр: драма, комедия, приключения

Режиссёр: Константин Бромберг
В ролях: Ева Берберова, Роман Берберов, Евгений Весник, Варвара Попова, Олег Корчиков, Анатолий Адоскин, Владимир Новиков, Лариса Барабанова, Александр Пожаров, Александр Малов

Перевод: Не требуется
Субтитры: Отсутствуют

Описание:
В основе фильма — реальные факты из жизни семьи бакинского архитектора Берберова, которая в домашних условиях воспитывала льва Кинга. В роли льва — Кинг II, снявшийся также в фильме «Лев ушёл из дому» в 1977.


Дополнительно:
MediaInfo ▼Text
"1 часть" ▼Общее
Полное имя :J:У меня есть левУ меня есть левУ меня есть лев. (1-ая серия).avi
Формат :AVI
Размер :724 MiB
Продолжительность :01:07:10.160
Общий поток :1 507 Kbps
Программа кодирования :VirtualDubMod 1.5.10.2 (build 2540/release)
Библиотека кодирования :VirtualDubMod build 2540/release

Видео
Идентификатор :0
Формат :MPEG-4 Visual
Профиль формата :Advanced [email protected]
Параметр BVOP формата :1
Параметр Qpel формата :No
Параметр GMC формата :0
Параметр Matrix формата :Default (H.263)
Идентификатор кодека :XVID
Продолжительность :1h 7mn 10s 160ms
Битрейт :1 368 Kbps
Ширина :720 pixels
Высота :512 pixels
Соотношение сторон :1.406
Частота кадров :29.970 fps
Глубина цвета :8 bits
Подвыборка цветности :4:2:0
Цветовое пространство :YUV
Тип развертки :Progressive
Бит/(Пиксели*Кадры) :0.124
Размер потока :657 MiB (91%)
Библиотека кодирования :XviD0050

Аудио #1
Идентификатор :1
Формат :MPEG Audio
Идентификатор кодека :55
Продолжительность :01:07:10.142
Вид битрейта :Constant
Битрейт :128 Kbps
Канал(ы) :2 channels
Частота :44.1 KHz
Метод сжатия :Lossy
Размер потока :61.5 MiB (8%)

"2 часть" ▼Общее
Полное имя :J:У меня есть левУ меня есть левУ меня есть лев. (2-ая серия).avi
Формат  
3bda649759ae630350eb5a1337827ca49e0097e5У меня есть лев (2 части из 2) (Константин Бромберг, драма, комедия, приключения, 1976) [DVDRip, Не требуется] У меня есть лев (2 части из 2) (Константин Бромберг, драма, комедия, приключения, 1976) [DVDRip, Не требуется] " />

Аплоадер: Админ, дата: 20-12-2012, 18:47, торрент скачан: 359 раз

Понравилась раздача? Посмотрите эти:
  • Дни хирурга Мишкина (3 части из 3) (Вадим Зобин, драма, 1967) [DVDRip, Не т ...
  • Биндюжник и король (2 части из 2) (Владимир Алеников, мюзикл, драма, комеди ...
  • Мир дому твоему (2 части из 2) (Константин Райкин, Аркадий Райкин, Марк Орл ...
  • Месье Ленуар, который... (2 части из 2) (Александр Орлов, телеспектакль, др ...
  • Люди и манекены (4 части из 4) (Виктор Храмов, Аркадий Райкин, комедия, 197 ...
  • Жди меня (Борис Иванов, Александр Столпер, драма, военный, 1972) [DVDRip, Н ...
  • Дон Сезар де Базан (2 части из 2) (Ян Фрид, мюзикл, комедия, 1989) [DVDRip, ...
  • Тимур и его команда (2 части из 2) (Александр Бланк, Сергей Линков, приключ ...
  • Вся королевская рать (3 части из 3) (Наум Ардашников, Александр Гуткович, д ...
  • Объяснение в любви (2 части из 2) (Илья Авербах, мелодрама, 1977) [DVDRip, ...
  • Небесные ласточки (2 части из 2) (Леонид Квинихидзе, мюзикл, драма, комедия ...
  • Комедия ошибок (2 части из 2) (Вадим Гаузнер, комедия, 1978) [DVDRip, Не тр ...
  • Карнавал (2 части из 2) (Татьяна Лиознова, мюзикл, комедия, 1981) [DVDRip, ...
  • Челюскинцы (2 части из 2) (Михаил Ершов, приключения, 1984) [TVRip, Не треб ...
  • Взятки гладки (2 части из 2) (Игорь Масленников, Комедия, 2008) [DVDRip, Не ...
  • Степь (2 части из 2) (Сергей Бондарчук, драма, история, 1977) [DVDRip, Не т ...
  • Сибириада (4 части из 4) (Андрей Кончаловский, драма, военный, история, 197 ...
  • Приморский бульвар (2 части из 2) (Александр Полынников, мюзикл, комедия, 1 ...
  • Приключения желтого чемоданчика (Илья Фрэз, комедия, семейный, 1970) [DVDRi ...
  • Почти смешная история (2 части из 2) (Петр Фоменко, мелодрама, комедия, 197 ...
  • Тихий Дон (3 части из 3) (Сергей Герасимов, драма, военный, 1957) [DVDRip, ...
  • Умные вещи (2 части из 2) (Анатолий Граник, детский, семейный, 1973) [DVDRi ...
  • Гений (2 части из 2) (Виктор Сергеев, Комедия, криминал, 1991) [DVDRip, Не ...
  • Дядюшкин сон (2 части из2) (Александр Орлов, драма, комедия, 1981) [DVDRip, ...
  • Зверобой (2 части из 2) (Андрей Ростоцкий, приключения, 1990) [DVDRip, Не т ...
  • Информация
    Посетители, находящиеся в группе Гости, не могут оставлять комментарии к данной публикации.