вход на сайт

Имя пользователя :
Пароль :

Восстановление пароля Регистрация
Фантазии Фарятьева (Илья Авербах, драма, комедия, 1979) [DVDRip, Не требуется]
Рейтинг:
(голосов: 1)



[img]{THEME}/images/logopost.png[/img]



Фантазии Фарятьева

Год выпуска: 1979
Страна: СССР
Производство: киностудия "Ленфильм"
Жанр: драма, комедия

Режиссёр: Илья Авербах
В ролях: Марина Неёлова, Андрей Миронов, Зинаида Шарко, Лилия Гриценко, Екатерина Дурова, Максим Бритвенков

Перевод: Не требуется
Субтитры: Отсутствуют

Описание:
Герои, живущие в двух тесных квартирах провинциального городка, пытаются быть счастливыми и сделать счастливыми других.

Донкихотствующий романтик-идеалист Павел Фарятьев пытается найти опору в другом человеке, пробиться сквозь стену отчужденности. Александра, к которой устремлены мысли и чувства героя, тоже хочет понять, как выйти из этого заколдованного круга.


Дополнительно:
MediaInfo ▼Text
Общее
Полное имя :K:Фантазии ФарятьеваFantazii Faryateva.1979.avi
Формат :AVI
Размер :1.46 GiB
Продолжительность :02:23:53.360
Общий поток :1 455 Kbps
Программа кодирования :VirtualDubMod 1.5.10.2 (build 2540/release)

Видео
Идентификатор :0
Формат :MPEG-4 Visual
Профиль формата :Advanced [email protected]
Параметр BVOP формата :2
Параметр Qpel формата :No
Параметр GMC формата :0
Параметр Matrix формата :Default (H.263)
Идентификатор кодека :XVID
Продолжительность :2h 23mn 53s 360ms
Битрейт :1 318 Kbps
Ширина :688 pixels
Высота :512 pixels
Соотношение сторон :1.344
Частота кадров :25.000 fps
Глубина цвета :8 bits
Подвыборка цветности :4:2:0
Цветовое пространство :YUV
Тип развертки :Progressive
Бит/(Пиксели*Кадры) :0.150
Размер потока :1.32 GiB (91%)
Библиотека кодирования :XviD0050

Аудио #1
Идентификатор :1
Формат :MPEG Audio
Идентификатор кодека :55
Продолжительность :02:23:51.264
Вид битрейта :Constant
Битрейт :128 Kbps
Канал(ы) :2 channels
Частота :48.0 KHz
Метод сжатия :Lossy
Размер потока :132 MiB (9%)Тех. данные:
Качество:DVDRip
Продолжительность:02:23:50 час

Формат: AVI
Видео кодек: XviD
Аудио кодек: MPA1L3
Видео: 688 x 512 (4:3), 25.000 fps, 1 318 Kbps, 0.150 bit/pix
98464b6942edf89edb580ae9bf46485a9ccebb17Фантазии Фарятьева (Илья Авербах, драма, комедия, 1979) [DVDRip, Не требуется] Фантазии Фарятьева (Илья Авербах, драма, комедия, 1979) [DVDRip, Не требуется] " />

Аплоадер: Админ, дата: 19-12-2012, 19:46, торрент скачан: 359 раз

Понравилась раздача? Посмотрите эти:
  • С любимыми не расставайтесь (Павел Арсенов, драма, мелодрама, 1979) [DVDRip ...
  • Гнездо на ветру (Олав Неуланд, драма, 1979) [DVDRip, Профессиональный (полн ...
  • Старшина (Николай Кошелев, драма, 1979) [DVDRip, Не требуется]
  • Степень риска (Илья Авербах, драма, 1968) [DVDRip, Не требуется]
  • Примите телеграмму в долг (Леонид Нечаев, драма, 1979) [DVDRip, Не требуетс ...
  • Завтрак на траве (Николай Александрович, детский, комедия, 1979) [DVDRip, Н ...
  • Драма (Герман Ливанов, короткометражка, комедия, 1960) [DVDRip, Не требуетс ...
  • Осенний марафон (Георгий Данелия, драма, мелодрама, комедия, 1979) [DVDRip, ...
  • Объяснение в любви (2 части из 2) (Илья Авербах, мелодрама, 1977) [DVDRip, ...
  • Сватовство гусара (Светлана Дружинина, мюзикл, мелодрама, комедия, 1979) [D ...
  • Чудак из пятого «Б» (Илья Фрэз, комедия, семейный, 1972) [DVDRip, Не требуе ...
  • Соловей (Надежда Кошеверова, мюзикл, семейный, 1979) [DVDRip, Не требуется] ...
  • Я вас любил... (Илья Фрэз, мелодрама, комедия, 1967) [DVDRip, Не требуется] ...
  • Суета сует (Алла Сурикова, комедия, 1979) [DVDRip, Не требуется]
  • Приключения маленького папы (Дмитрий Крупко, детский, комедия, 1979) [DVDRi ...
  • Приключения желтого чемоданчика (Илья Фрэз, комедия, семейный, 1970) [DVDRi ...
  • При исполнении служебных обязанностей (Илья Гурин, фантастика, драма, 1963) ...
  • Пограничный пес Алый (Юлий Файт, драма, 1979) [DVDRip, Не требуется]
  • Добряки (Карен Шахназаров, комедия, 1979) [DVDRip, Не требуется]
  • Карантин (Илья Фрэз, комедия, 1983) [DVDRip, Не требуется]
  • Информация
    Посетители, находящиеся в группе Гости, не могут оставлять комментарии к данной публикации.