вход на сайт

Имя пользователя :
Пароль :

Восстановление пароля Регистрация
Уходя - уходи (Виктор Трегубович, комедия, 1978) [DVDRip, Не требуется]
Рейтинг:
(голосов: 1)



[img]{THEME}/images/logopost.png[/img]



Уходя - уходи

Год выпуска: 1978
Страна: СССР
Производство: Ленфильм
Жанр: комедия

Режиссёр: Виктор Трегубович
В ролях: Виктор Павлов, Людмила Гурченко, Марина Трегубович, Николай Рыбников, Наталья Андрейченко, Наталья Гундарева, Олег Кононов, Федор Одиноков, Елена Павловская, Николай Сытин

Перевод: Не требуется
Субтитры: Отсутствуют

Описание:
Незаметный, скромный бухгалтер Сулин часто попадает в полусмешные-полугрустные ситуации — часто робеет, боится идти наперекор хоть кому-то. Пока однажды случай не помог ему вспомнить, что и он был когда-то решительным и отважным.


Дополнительно:
MediaInfo ▼Text
Общее
Полное имя :L:Уходя - уходиUkhodya-ukhodi.DVDRip.avi
Формат :AVI
Размер :1.37 GiB
Продолжительность :01:25:47.960
Общий поток :2 278 Kbps
Программа кодирования :VirtualDubModRus 1.5.10.2 (build 2542/release)
Библиотека кодирования :VirtualDubMod build 2542/release

Видео
Идентификатор :0
Формат :MPEG-4 Visual
Профиль формата :Advanced [email protected]
Параметр BVOP формата :2
Параметр Qpel формата :No
Параметр GMC формата :0
Параметр Matrix формата :Default (MPEG)
Идентификатор кодека :XVID
Продолжительность :1h 25mn 47s 960ms
Битрейт :2 077 Kbps
Ширина :704 pixels
Высота :528 pixels
Соотношение сторон :1.333
Частота кадров :25.000 fps
Глубина цвета :8 bits
Подвыборка цветности :4:2:0
Цветовое пространство :YUV
Тип развертки :Progressive
Бит/(Пиксели*Кадры) :0.223
Размер потока :1.24 GiB (91%)
Библиотека кодирования :XviD0050

Аудио #1
Идентификатор :1
Формат :AC-3
Формат/Информация :Audio Coding 3
Идентификатор кодека :2000
Продолжительность :01:25:47.776
Вид битрейта :Constant
Битрейт :192 Kbps
Канал(ы) :2 channels
Расположение каналов :Front: L R
Частота :48.0 KHz
Битовая глубина :16 bits
Метод сжатия :Lossy
Размер потока :118 MiB (8%)Тех. данные:
Качество
15f2fdc973c1a88739aecd3ef108a26c6c7b1ad3Уходя - уходи (Виктор Трегубович, комедия, 1978) [DVDRip, Не требуется] Уходя - уходи (Виктор Трегубович, комедия, 1978) [DVDRip, Не требуется] " />

Аплоадер: Админ, дата: 19-12-2012, 19:37, торрент скачан: 359 раз

Понравилась раздача? Посмотрите эти:
  • Дружок (Виктор Эйсымонт, семейный, 1958) [DVDRip, Не требуется]
  • Человек, которому везло (Константин Ершов, драма, 1978) [DVDRip, Не требует ...
  • Люди и манекены (4 части из 4) (Виктор Храмов, Аркадий Райкин, комедия, 197 ...
  • Даурия (2 части из 2) (Виктор Трегубович, боевик, драма, мелодрама, приключ ...
  • Выйти замуж за капитана (Виталий Мельников, мелодрама, комедия, 1985) [DVDR ...
  • Гражданин Лёшка (Виктор Крючков, комедия, 1980) [DVDRip, Не требуется]
  • Приключения Толи Клюквина (Виктор Эйсымонт, комедия, семейный, 1964) [DVDRi ...
  • Баламут (Владимир Роговой, драма, комедия, 1978) [DVDRip, Не требуется]
  • Гиперболоид инженера Гарина (Александр Гинцбург, фантастика, 1965) [DVDRip, ...
  • Комедия ошибок (2 части из 2) (Вадим Гаузнер, комедия, 1978) [DVDRip, Не тр ...
  • Ты и я (Лариса Шепитько, драма, 1971) [DVDRip, Не требуется]
  • Печники (Виктор Храмов, драма, 1982) [DVDRip, Не требуется]
  • Бабушки надвое сказали (Валерий Харченко, Юрий Клебанов, комедия, 1979) [DV ...
  • Табачный капитан (Игорь Усов, мюзикл, комедия, история, 1972) [DVDRip, Не т ...
  • Светлая личность (Александр Павловский, мюзикл, комедия, 1989) [DVDRip, Не ...
  • Сибириада (4 части из 4) (Андрей Кончаловский, драма, военный, история, 197 ...
  • Ханума (2 части из 2) (Георгий Товстоногов, мюзикл, комедия, 1978) [DVDRip, ...
  • Старомодная комедия (Эра Савельева, Татьяна Березанцева, мелодрама, 1978) [ ...
  • Подпольный обком действует (4 части из 4) (Анатолий Буковский, военный, 197 ...
  • Пока безумствует мечта (Юрий Горковенко, комедия, приключения, 1978) [DVDRi ...
  • Здравствуйте, я ваша тетя! (Виктор Титов, комедия, 1974) [DVDRip, Не требуе ...
  • Гений (2 части из 2) (Виктор Сергеев, Комедия, криминал, 1991) [DVDRip, Не ...
  • Ключи от неба (Виктор Иванов, комедия, 1964) [DVDRip, Не требуется]
  • В добрый час! (Виктор Эйсымонт, драма, мелодрама, 1956) [DVDRip, Не требует ...
  • Целуются зори (Сергей Никоненко, комедия, 1978) [DVDRip, Не требуется]
  • Информация
    Посетители, находящиеся в группе Гости, не могут оставлять комментарии к данной публикации.