вход на сайт

Имя пользователя :
Пароль :

Восстановление пароля Регистрация
Суета сует (Алла Сурикова, комедия, 1979) [DVDRip, Не требуется]
Рейтинг:
(голосов: 1)



[img]{THEME}/images/logopost.png[/img]



Суета сует

Год выпуска: 1979
Страна: СССР
Производство: Мосфильм
Жанр: комедия

Режиссёр: Алла Сурикова
В ролях: Галина Польских, Фрунзик Мкртчян, Леонид Куравлёв, Анна Варпаховская, Сергей Иванов, Сергей Бачурский, Борислав Брондуков, Людмила Иванова, Леонид Харитонов, Наталья Крачковская

Перевод: Не требуется
Субтитры: Отсутствуют

Описание:
Много лет работник ЗАГСа Марина Петровна регистрировала счастливые браки. Но однажды на пороге учреждения оказался не кто иной, как ее собственный муж.

Увлекшись молодой женщиной, он решил изменить свою жизнь и уйти из семьи. Однако Марина Петровна своего согласия на развод не дала — и, как выяснилось, не зря…


Дополнительно:
MediaInfo ▼Text
Общее
Полное имя :D:Суета суетСуета сует.avi
Формат :AVI
Размер :906 MiB
Продолжительность :01:22:18.120
Общий поток :1 539 Kbps
Программа кодирования :VirtualDubMod 1.5.10.2 (build 2540/release)
Библиотека кодирования :VirtualDubMod build 2540/release

Видео
Идентификатор :0
Формат :MPEG-4 Visual
Профиль формата :Advanced [email protected]
Параметр BVOP формата :3
Параметр Qpel формата :Yes
Параметр GMC формата :3
Параметр Matrix формата :Default (H.263)
Идентификатор кодека :XVID
Продолжительность :1h 22mn 18s 120ms
Битрейт :1 402 Kbps
Ширина :704 pixels
Высота :304 pixels
Соотношение сторон :2.316
Частота кадров :25.000 fps
Глубина цвета :8 bits
Подвыборка цветности :4:2:0
Цветовое пространство :YUV
Тип развертки :Progressive
Бит/(Пиксели*Кадры) :0.262
Размер потока :825 MiB (91%)
Библиотека кодирования :XviD0047

Аудио #1
Идентификатор :1
Формат :MPEG Audio
Идентификатор кодека :55
Продолжительность :01:22:18.120
Вид битрейта :Constant
Битрейт :128 Kbps
Канал(ы) :2 channels
Частота :48.0 KHz
Метод сжатия :Lossy
Размер потока :75.3 MiB (8%)Тех. данные:
Качество:DVDRip
Продолжительность:01:22:10 час

Формат: AVI
Видео кодек: XviD
Аудио ко
5fa583965c572be72192aa8b564e43907ff15276Суета сует (Алла Сурикова, комедия, 1979) [DVDRip, Не требуется] Суета сует (Алла Сурикова, комедия, 1979) [DVDRip, Не требуется] " />

Аплоадер: Админ, дата: 19-12-2012, 19:21, торрент скачан: 359 раз

Понравилась раздача? Посмотрите эти:
  • Тайна «Волчьей пасти» (Алла Сурикова, приключения, семейный, 2004) [DVDRip, ...
  • Божья тварь (Галина Данелия-Юркова, комедия, 1991) [DVDRip, Не требуется]
  • С любимыми не расставайтесь (Павел Арсенов, драма, мелодрама, 1979) [DVDRip ...
  • Старшина (Николай Кошелев, драма, 1979) [DVDRip, Не требуется]
  • Примите телеграмму в долг (Леонид Нечаев, драма, 1979) [DVDRip, Не требуетс ...
  • Ах, водевиль, водевиль... (Георгий Юнгвальд-Хилькевич, мюзикл, комедия, 197 ...
  • Две стрелы. Детектив каменного века (Алла Сурикова, комедия, криминал, 1989 ...
  • Завтрак на траве (Николай Александрович, детский, комедия, 1979) [DVDRip, Н ...
  • Осенний марафон (Георгий Данелия, драма, мелодрама, комедия, 1979) [DVDRip, ...
  • Опасно для жизни! (Леонид Гайдай, комедия, 1985) [DVDRip, Не требуется]
  • Не забудь... станция Луговая (Никита Курихин, Леонид Менакер, драма, мелодр ...
  • Левша (Сергей Овчаров, драма, комедия, 1986) [DVDRip, Не требуется]
  • Сватовство гусара (Светлана Дружинина, мюзикл, мелодрама, комедия, 1979) [D ...
  • Небывальщина (Сергей Овчаров, комедия, 1983) [DVDRip, Не требуется]
  • Спортлото-82 (Леонид Гайдай, комедия, приключения, 1982) [DVDRip, Не требуе ...
  • Стакан воды (Юлий Карасик, мелодрама, комедия, история, 1979) [DVDRip, Не т ...
  • Фантазии Фарятьева (Илья Авербах, драма, комедия, 1979) [DVDRip, Не требует ...
  • Суета сует (Алла Сурикова, Комедия, 1978 г) [DVDRip]
  • Суета сует (Алла Сурикова, Комедия, 1979) [DVDRip, Оригинал]
  • Добряки (Карен Шахназаров, комедия, 1979) [DVDRip, Не требуется]
  • Информация
    Посетители, находящиеся в группе Гости, не могут оставлять комментарии к данной публикации.