вход на сайт

Имя пользователя :
Пароль :

Восстановление пароля Регистрация
Стряпуха (Эдмонд Кеосаян, комедия, 1965) [DVDRip, Не требуется]
Рейтинг:
(голосов: 1)



[img]{THEME}/images/logopost.png[/img]



Стряпуха

Год выпуска: 1965
Страна: СССР
Производство: Мосфильм
Жанр: комедия

Режиссёр: Эдмонд Кеосаян
В ролях: Светлана Светличная, Людмила Хитяева, Инна Чурикова, Константин Сорокин, Георгий Юматов, Иван Савкин, Людмила Марченко, Владимир Высоцкий, Зоя Фёдорова, Сергей Филиппов

Перевод: Не требуется
Субтитры: Отсутствуют

Описание:
В одном из кубанских колхозов появилась новая красавица-стряпуха. За ней стали ухаживать многие, но девушка оказалась не робкого десятка и быстро дала от ворот поворот незадачливым ухажерам. Однако настоящая любовь нашла путь к ее сердцу и, хотя людская зависть и глупость натворили немало бед, влюбленные все-таки смогли распутать этот сложный клубок недоразумений.


Дополнительно:
MediaInfo ▼Text
Общее
Полное имя :L:СтряпухаStryapukha.DVDRip.avi
Формат :AVI
Размер :1.09 GiB
Продолжительность :01:06:34.280
Общий поток :2 350 Kbps
Программа кодирования :VirtualDubModRus 1.5.10.2 (build 2542/release)
Библиотека кодирования :VirtualDubMod build 2542/release

Видео
Идентификатор :0
Формат :MPEG-4 Visual
Параметр BVOP формата :1
Параметр Qpel формата :No
Параметр GMC формата :0
Параметр Matrix формата :Default (H.263)
Идентификатор кодека :DX50
Продолжительность :1h 6mn 34s 280ms
Битрейт :2 148 Kbps
Ширина :704 pixels
Высота :528 pixels
Соотношение сторон :1.333
Частота кадров :25.000 fps
Глубина цвета :8 bits
Подвыборка цветности :4:2:0
Цветовое пространство :YUV
Тип развертки :Progressive
Бит/(Пиксели*Кадры) :0.231
Размер потока :1 023 MiB (91%)
Библиотека кодирования :DivX503b2676p

Аудио #1
Идентификатор :1
Формат :AC-3
Формат/Информация :Audio Coding 3
Идентификатор кодека :2000
Продолжительность :01:06:34.272
Вид битрейта :Constant
Битрейт :192 Kbps
Канал(ы) :2 channels
Расположение каналов :Front: L R
Частота :48.0 KHz
Битовая глубина :16 bits
Метод сжатия :Lossy
Размер потока :91.4 MiB (8%)
&nbs
3f592bff80076c6709e940e18448fa332c79fa95Стряпуха (Эдмонд Кеосаян, комедия, 1965) [DVDRip, Не требуется] Стряпуха (Эдмонд Кеосаян, комедия, 1965) [DVDRip, Не требуется] " />

Аплоадер: Админ, дата: 19-12-2012, 19:17, торрент скачан: 359 раз

Понравилась раздача? Посмотрите эти:
  • На подмостках сцены (Константин Юдин, драма, комедия, 1956) [DVDRip, Не тре ...
  • Начало (Глеб Панфилов, мелодрама, комедия, 1970) [DVDRip, Не требуется]
  • Девушка без адреса (Эльдар Рязанов, мелодрама, комедия, 1957) [DVDRip, Не т ...
  • Пакет (Владимир Назаров, комедия, приключения, семейный, 1965) [DVDRip, Не ...
  • Гиперболоид инженера Гарина (Александр Гинцбург, фантастика, 1965) [DVDRip, ...
  • Деревенский детектив (Иван Лукинский, комедия, криминал, 1968) [DVDRip, Не ...
  • Неуловимые мстители. Трилогия (Эдмонд Кеосаян, Боевик, 1966, 1968, 1970) [D ...
  • Фантазеры (Исаак Магитон, И. Сафарова, детский, 1965) [DVDRip, Не требуется ...
  • Сватовство гусара (Светлана Дружинина, мюзикл, мелодрама, комедия, 1979) [D ...
  • Чайка (Юлий Карасик, драма, 1972) [DVDRip, Не требуется]
  • Табачный капитан (Игорь Усов, мюзикл, комедия, история, 1972) [DVDRip, Не т ...
  • Спящий лев (Александр Файнциммер, комедия, 1965) [DVDRip, Не требуется]
  • Сегодня – новый аттракцион (Надежда Кошеверова, Аполлинарий Дудко, комедия, ...
  • Тридцать три (Георгий Данелия, комедия, 1965) [DVDRip, Не требуется]
  • Уходя - уходи (Виктор Трегубович, комедия, 1978) [DVDRip, Не требуется]
  • Похождения Насреддина (Наби Ганиев, комедия, 1946) [DVDRip, Не требуется]
  • Стряпуха (Эдмонд Кеосаян, Комедия, 1965 г) [DVDRip, оригинал]
  • Хозяин и слуга (Дмитрий Кесаянц, короткометражка, комедия, 1963) [DVDRip, Н ...
  • Чудак-человек (Владимир Кочетов, комедия, 1962) [DVDRip, Не требуется]
  • Фонтан (Юрий Мамин, комедия, 1989) [DVDRip, Не требуется]
  • Информация
    Посетители, находящиеся в группе Гости, не могут оставлять комментарии к данной публикации.