вход на сайт

Имя пользователя :
Пароль :

Восстановление пароля Регистрация
Собака на сене (Реставрирован) (Ян Фрид, мюзикл, комедия, 1977) [DVDRip, Не требуется]
Рейтинг:
(голосов: 1)



[img]{THEME}/images/logopost.png[/img]



Собака на сене (Реставрирован)

Год выпуска: 1977
Страна: СССР
Производство: Ленфильм
Жанр: мюзикл, комедия

Режиссёр: Ян Фрид
В ролях: Маргарита Терехова, Михаил Боярский, Армен Джигарханян, Елена Проклова, Зинаида Шарко, Виктор Ильичев, Игорь Дмитриев, Николай Караченцов, Гелена Ивлиева, Алексей Кожевников

Перевод: Не требуется
Субтитры: Отсутствуют

Описание:
Богатая и знатная сеньора Диана терзается сомнениями: ей нужно выбрать между достойными ее руки женихами и личным секретарем — красавцем и ловеласом. А тот, в свою очередь, не может решить, кто ему больше по сердцу — его обворожительная хозяйка или ее прелестная служанка…


Дополнительно:
MediaInfo ▼Text
Общее
Полное имя :K:Собака на сенеСобака на сене.1977.DVDRip.avi
Формат :AVI
Размер :2.03 GiB
Продолжительность :02:08:42.320
Общий поток :2 256 Kbps
Программа кодирования :AVI-Mux GUI 1.17.8, Aug 30 2008 12:36:58

Видео
Идентификатор :0
Формат :MPEG-4 Visual
Профиль формата :Advanced [email protected]
Параметр BVOP формата :2
Параметр Qpel формата :No
Параметр GMC формата :0
Параметр Matrix формата :Default (MPEG)
Идентификатор кодека :XVID
Продолжительность :2h 8mn 42s 320ms
Битрейт :1 803 Kbps
Ширина :704 pixels
Высота :528 pixels
Соотношение сторон :1.333
Частота кадров :25.000 fps
Глубина цвета :8 bits
Подвыборка цветности :4:2:0
Цветовое пространство :YUV
Тип развертки :Progressive
Бит/(Пиксели*Кадры) :0.194
Размер потока :1.62 GiB (80%)
Библиотека кодирования :XviD0050

Аудио #1
Идентификатор :1
Формат :AC-3
Формат/Информация :Audio Coding 3
Идентификатор кодека :2000
Продолжительность :02:08:42.304
Вид битрейта :Constant
Битрейт :448 Kbps
Канал(ы) :6 channels
Расположение каналов :Front: L C R, Side: L R, LFE
Частота :48.0 KHz
Битовая глубина :16 bits
Метод сжатия :Lossy
Размер потока :412 MiB (20%)Тех. данные:
Качеств
6decf94952792d6c16446b16715957591dbd8082Собака на сене (Реставрирован) (Ян Фрид, мюзикл, комедия, 1977) [DVDRip, Не требуется] Собака на сене (Реставрирован) (Ян Фрид, мюзикл, комедия, 1977) [DVDRip, Не требуется] " />

Аплоадер: Админ, дата: 19-12-2012, 18:58, торрент скачан: 359 раз

Понравилась раздача? Посмотрите эти:
  • Дон Сезар де Базан (2 части из 2) (Ян Фрид, мюзикл, комедия, 1989) [DVDRip, ...
  • Покровские ворота (2 части из 2) (Михаил Козаков, мюзикл, драма, мелодрама, ...
  • Ночные забавы (2 части из 2. Реставрирован) (Владимир Краснопольский, Валер ...
  • Моя любовь (Владимир Корш-Саблин, мюзикл, мелодрама, комедия, 1940) [DVDRip ...
  • Летучая мышь (Реставрация) (Ян Фрид, мюзикл, комедия, 1978) [DVDRip, Профес ...
  • Князь Игорь (Роман Тихомиров, мюзикл, приключения, 1969) [DVDRip, Не требуе ...
  • Сватовство гусара (Светлана Дружинина, мюзикл, мелодрама, комедия, 1979) [D ...
  • Тартюф (Ян Фрид, комедия, 1992) [DVDRip, Не требуется]
  • Как Иванушка-дурачок за чудом ходил (Надежда Кошеверова, фэнтези, семейный, ...
  • Табачный капитан (Игорь Усов, мюзикл, комедия, история, 1972) [DVDRip, Не т ...
  • Сильва (2 части из 2) (Ян Фрид, мюзикл, комедия, 1981) [DVDRip, Не требуетс ...
  • Светлая личность (Александр Павловский, мюзикл, комедия, 1989) [DVDRip, Не ...
  • Шельменко-денщик (Андрей Тутышкин, мюзикл, комедия, 1971) [DVDRip, Не требу ...
  • Приехали на конкурс повара (Нерсес Оганесян, комедия, 1977) [DVDRip, Не тре ...
  • Собака на сене (Ян Фрид) [1977, музыкальная комедия, DVDRip (полная реставр ...
  • Собака на сене (Ян Фрид, музыкальная комедия, оперетта, 1977) [DVD9, оригин ...
  • Собака на сене (Ян Фрид/музыкальная комедия/1977 г.) [DVDRip-AVC, Оригинал ...
  • Собака на сене (Ян Фрид, Музыкальная Комедия, 1977) [DVDRip, Не требуется]
  • Р.В.С. (Алексей Мороз, военный, 1977) [DVDRip, (2х)Оригинал (русский)]
  • Автомобиль, скрипка и собака Клякса (Ролан Быков, мюзикл, семейный, 1974) [ ...
  • Информация
    Посетители, находящиеся в группе Гости, не могут оставлять комментарии к данной публикации.