вход на сайт

Имя пользователя :
Пароль :

Восстановление пароля Регистрация
Самый красивый конь (Степан Пучинян, мелодрама, 1976) [DVDRip, Не требуется]
Рейтинг:
(голосов: 1)



[img]{THEME}/images/logopost.png[/img]



Самый красивый конь

Год выпуска: 1976
Страна: СССР
Производство: Студия Горького
Жанр: мелодрама

Режиссёр: Степан Пучинян
В ролях: Александр Симакин, Олег Жаков, Евгений Жариков, Людмила Дьяконова, Леонид Куравлёв, Лариса Лужина, Николай Дупак, Анатолий Горин, Виктор Щеглов, Лена Безносикова

Перевод: Не требуется
Субтитры: Отсутствуют

Описание:
По мотивам одноименной повести Бориса Алмазова. О том, как серьезное увлечение конным спортом помогло двоечнику Игорю Пономареву стать одним из лучших учеников класса.


Дополнительно:
MediaInfo ▼Text
Общее
Полное имя :J:Самый красивый коньsamyy krasivyy kon.avi
Формат :AVI
Размер :781 MiB
Продолжительность :01:15:09.880
Общий поток :1 452 Kbps
Программа кодирования :VirtualDubMod 1.5.10.2 (build 2542/release)
Библиотека кодирования :VirtualDubMod build 2542/release

Видео
Идентификатор :0
Формат :MPEG-4 Visual
Параметр BVOP формата :1
Параметр Qpel формата :No
Параметр GMC формата :0
Параметр Matrix формата :Default (H.263)
Идентификатор кодека :DX50
Продолжительность :1h 15mn 9s 880ms
Битрейт :1 347 Kbps
Ширина :608 pixels
Высота :288 pixels
Соотношение сторон :2.111
Частота кадров :25.000 fps
Глубина цвета :8 bits
Подвыборка цветности :4:2:0
Цветовое пространство :YUV
Тип развертки :Progressive
Бит/(Пиксели*Кадры) :0.308
Размер потока :724 MiB (93%)
Библиотека кодирования :DivX503b740p

Аудио #1
Идентификатор :1
Формат :MPEG Audio
Идентификатор кодека :55
Продолжительность :01:15:09.818
Вид битрейта :Constant
Битрейт :96.0 Kbps
Канал(ы) :1 channel
Частота :44.1 KHz
Метод сжатия :Lossy
Размер потока :51.6 MiB (7%)Тех. данные:
Качество:DVDRip
Продолжительность:01:15:00 час

Формат: AVI
Видео кодек: DivX
Аудио кодек: MPA1L3
Видео: 608 x 288 (2.2:1), 25.000 fps, 1 347 Kbps, 0.308 bit/pixel
Аудио : 44.1 KHz, , 1 channel (), 96.0 Kbps



ff27433463a833d9661f09e26b0c99ba393ce002Самый красивый конь (Степан Пучинян, мелодрама, 1976) [DVDRip, Не требуется] Самый красивый конь (Степан Пучинян, мелодрама, 1976) [DVDRip, Не требуется] " />

Аплоадер: Админ, дата: 19-12-2012, 18:31, торрент скачан: 359 раз

Понравилась раздача? Посмотрите эти:
  • Подранки (Николай Губенко, драма, 1976) [DVDRip, Не требуется]
  • Журавушка (Николай Москаленко, драма, мелодрама, 1968) [DVDRip, Не требуетс ...
  • Борец и клоун (Борис Барнет, Константин Юдин, драма, спорт, 1957) [DVDRip, ...
  • Медовый месяц (Надежда Кошеверова, мелодрама, комедия, 1956) [DVDRip, Не тр ...
  • Дневной поезд (Инесса Селезнева, драма, 1976) [DVDRip, Не требуется]
  • Дама с собачкой (Иосиф Хейфиц, драма, мелодрама, 1959) [DVDRip, Не требуетс ...
  • Вы чье, старичье? (Иосиф Хейфиц, драма, 1988) [DVDRip, Не требуется]
  • Гражданин Лёшка (Виктор Крючков, комедия, 1980) [DVDRip, Не требуется]
  • Шанс (Александр Майоров, фантастика, фэнтези, мелодрама, комедия, приключен ...
  • Семьдесят два градуса ниже нуля (Сергей Данилин, Евгений Татарский, боевик, ...
  • Последняя жертва (Петр Тодоровский, драма, мелодрама, 1975) [DVDRip, Не тре ...
  • Дамы и гусары (Анатолий Ниточкин, Александра Ремизова, комедия, 1976) [DVDR ...
  • Мама (Элизабета Бостан, мюзикл, фэнтези, семейный, 1976) [DVDRip, Не требуе ...
  • Кадкина всякий знает (Анатолий Вехотко, Наталья Трощенко, мелодрама, 1976) ...
  • Ты и я (Лариса Шепитько, драма, 1971) [DVDRip, Не требуется]
  • Адъютант его превосходительства (5 частей из 5) (Евгений Ташков, мелодрама, ...
  • Степь (2 части из 2) (Сергей Бондарчук, драма, история, 1977) [DVDRip, Не т ...
  • Сотрудник ЧК (Борис Волчек, боевик, история, 1963) [DVDRip, Не требуется]
  • Табор уходит в небо (Эмиль Лотяну, мюзикл, драма, мелодрама, 1976) [DVDRip, ...
  • У меня есть лев (2 части из 2) (Константин Бромберг, драма, комедия, приклю ...
  • Сказ про то, как царь Петр арапа женил (Александр Митта, мюзикл, мелодрама, ...
  • Пока бьют часы (Геннадий Васильев, фэнтези, семейный, 1976) [DVDRip, Не тре ...
  • В добрый час! (Виктор Эйсымонт, драма, мелодрама, 1956) [DVDRip, Не требует ...
  • Легенда о Тиле. Фильм первый – Пепел Клааса // Легенда о Тиле. Фильм второй ...
  • К Черному морю (Андрей Тутышкин, мелодрама, комедия, 1957) [DVDRip, Не треб ...
  • Информация
    Посетители, находящиеся в группе Гости, не могут оставлять комментарии к данной публикации.