вход на сайт

Имя пользователя :
Пароль :

Восстановление пароля Регистрация
Я вас любил... (Илья Фрэз, мелодрама, комедия, 1967) [DVDRip, Не требуется]
Рейтинг:
(голосов: 1)



[img]{THEME}/images/logopost.png[/img]




Я вас любил...

Год выпуска: 1967
Страна: СССР
Производство: Студия Горького
Жанр: мелодрама, комедия

Режиссёр: Илья Фрэз
В ролях: Виктор Перевалов, Виолетта Хуснулова, Валерий Рыжаков, Наталья Селезнёва, Евгений Весник, Вера Орлова, Нина Чистова, Наталья Дудинская, Ольга Фалина, Райхана Каримова

Перевод: Не требуется
Субтитры: Отсутствуют

Описание:
Комедия о первой любви десятиклассника к ученице хореографического училища. И о том, как под влиянием любимой герой становится другим человеком.


Дополнительно:
MediaInfo ▼Text
Общее
Полное имя :D:Я вас любилЯ вас любил.avi
Формат :AVI
Размер :574 MB
Продолжительность :01:25:42.200
Общий поток :936 Kbps
Программа кодирования :VirtualDubMod 1.5.10.2 (build 2540/release)
Библиотека кодирования :VirtualDubMod build 2540/release

Видео
Идентификатор :0
Формат :MPEG-4 Visual
Профиль формата :Advanced Simple@L5
Параметр BVOP формата :2
Параметр Qpel формата :Yes
Параметр GMC формата :3
Параметр Matrix формата :Default (H.263)
Идентификатор кодека :XVID
Продолжительность :1h 25mn 42s 200ms
Битрейт :799 Kbps
Ширина :688 pixels
Высота :384 pixels
Соотношение сторон :1.792
Частота кадров :25.000 fps
Глубина цвета :8 bits
Подвыборка цветности :4:2:0
Цветовое пространство :YUV
Тип развертки :Progressive
Бит/(Пиксели*Кадры) :0.121
Размер потока :490 MiB (85%)
Библиотека кодирования :XviD0047

Аудио #1
Идентификатор :1
Формат :MPEG Audio
Идентификатор кодека :55
Продолжительность :01:25:38.736
Вид битрейта :Constant
Битрейт :128 Kbps
Канал(ы) :2 channels
Частота :48.0 KHz
Метод сжатия :Lossy
Размер потока :78.4 MiB (14%)Тех. данные:
Качество:DVDRip
Продолжительность:01:25:40 час

Формат: AVI
Видео кодек: XviD
Аудио кодек: MPA1L3
Видео: 688 x 384 (16:9), 25.000 fps, 799 Kbps, 0.121 bit/pixel
Аудио : 48.0 KHz, , 2 channels (), 128 Kbps



5ceac5de47960adfd453fdc40dcc09480496d0a5Я вас любил... (Илья Фрэз, мелодрама, комедия, 1967) [DVDRip, Не требуется] Я вас любил... (Илья Фрэз, мелодрама, комедия, 1967) [DVDRip, Не требуется] " />

Аплоадер: Админ, дата: 18-12-2012, 19:57, торрент скачан: 359 раз

Понравилась раздача? Посмотрите эти:
  • Василий и Василиса (Ирина Поплавская, драма, мелодрама, биография, 1981) [D ...
  • Вас вызывает Таймыр (Алексей Коренев, комедия, 1970) [DVDRip, Не требуется] ...
  • Необыкновенное путешествие Мишки Стрекачева (Илья Фрэз, Эдуард Бочаров, сем ...
  • Выйти замуж за капитана (Виталий Мельников, мелодрама, комедия, 1985) [DVDR ...
  • Рыжик (Илья Фрэз, приключения, семейный, 1960) [DVDRip, Не требуется]
  • Первоклассница (Илья Фрэз, детский, 1948) [DVDRip, Не требуется]
  • Афоня (Георгий Данелия, драма, мелодрама, комедия, 1975) [DVDRip, Не требуе ...
  • Бабье царство (Алексей Салтыков, драма, 1967) [DVDRip, Не требуется]
  • Иван да Марья (Борис Рыцарев, фэнтези, мелодрама, комедия, семейный, музыка ...
  • Объяснение в любви (2 части из 2) (Илья Авербах, мелодрама, 1977) [DVDRip, ...
  • Это мы не проходили (Илья Фрэз, драма, 1975) [DVDRip, Не требуется]
  • Чудак из пятого «Б» (Илья Фрэз, комедия, семейный, 1972) [DVDRip, Не требуе ...
  • Фантазии Фарятьева (Илья Авербах, драма, комедия, 1979) [DVDRip, Не требует ...
  • Приключения желтого чемоданчика (Илья Фрэз, комедия, семейный, 1970) [DVDRi ...
  • При исполнении служебных обязанностей (Илья Гурин, фантастика, драма, 1963) ...
  • Сказка о царе Салтане (Александр Птушко, фэнтези, семейный, 1967) [DVDRip, ...
  • Полустанок (Борис Барнет, мелодрама, комедия, 1963) [DVDRip, Не требуется]
  • Женя, Женечка и «Катюша» (Владимир Мотыль, мелодрама, комедия, военный, 196 ...
  • Сердца четырех (Константин Юдин, мелодрама, комедия, 1941) [DVDRip, Не треб ...
  • Карантин (Илья Фрэз, комедия, 1983) [DVDRip, Не требуется]
  • Информация
    Посетители, находящиеся в группе Гости, не могут оставлять комментарии к данной публикации.