вход на сайт

Имя пользователя :
Пароль :

Восстановление пароля Регистрация
Табор уходит в небо (Эмиль Лотяну, мюзикл, драма, мелодрама, 1976) [DVDRip, Не требуется]
Рейтинг:
(голосов: 1)



[img]{THEME}/images/logopost.png[/img]



Табор уходит в небо

Год выпуска: 1976
Страна: СССР
Производство: Мосфильм
Жанр: мюзикл, драма, мелодрама

Режиссёр: Эмиль Лотяну
В ролях: Григоре Григориу, Светлана Тома, Барасби Мулаев, Ион Сандри Шкуря, Павел Андрейченко, Серджиу Финити, Борислав Брондуков, Ляля Черная, Нелли Волшанинова, Николай Волшанинов

Перевод: Не требуется
Субтитры: Отсутствуют

Описание:
Картина снята по мотивам произведений М. Горького. В основе — несколько пересекающихся историй любви. Действие разворачивается внутри цыганского табора, блуждающего по степям Бессарабии, на окраине Австро-Венгерской империи.


Дополнительно:
MediaInfo ▼Text
Общее
Полное имя :L:Табор уходит в небоTabor uhodit v nebo.DVDRip.avi
Формат :AVI
Размер :745 MiB
Продолжительность :01:35:45.960
Общий поток :1 088 Kbps
Программа кодирования :VirtualDubModRus 1.5.10.2 (build 2542/release)
Библиотека кодирования :VirtualDubMod build 2542/release

Видео
Идентификатор :0
Формат :MPEG-4 Visual
Параметр BVOP формата :1
Параметр Qpel формата :No
Параметр GMC формата :0
Параметр Matrix формата :Default (H.263)
Идентификатор кодека :DX50
Продолжительность :1h 35mn 45s 960ms
Битрейт :950 Kbps
Ширина :672 pixels
Высота :288 pixels
Соотношение сторон :2.333
Частота кадров :25.000 fps
Глубина цвета :8 bits
Подвыборка цветности :4:2:0
Цветовое пространство :YUV
Тип развертки :Progressive
Бит/(Пиксели*Кадры) :0.196
Размер потока :651 MiB (87%)
Библиотека кодирования :DivX503b2676p

Аудио #1
Идентификатор :1
Формат :MPEG Audio
Идентификатор кодека :55
Продолжительность :01:35:45.960
Вид битрейта :Constant
Битрейт :128 Kbps
Канал(ы) :2 channels
Частота :48.0 KHz
Метод сжатия :Lossy
Размер потока :87.7 MiB (12%)Тех. данные:
Качество:DVDRip
Продолжительность:01:35:40 час

Формат: AVI
Видео кодек: DivX
Аудио кодек: MPA1L3
Видео: 672 x 288 (2.35:1), 25.000 fps, 950 Kbps, 0.196 bit/pixel
Аудио : 48.0 KHz, , 2 channels (), 128 Kbps



28969c3264c7badfaf934d13549afa98d6a904a0Табор уходит в небо (Эмиль Лотяну, мюзикл, драма, мелодрама, 1976) [DVDRip, Не требуется] Табор уходит в небо (Эмиль Лотяну, мюзикл, драма, мелодрама, 1976) [DVDRip, Не требуется] " />

Аплоадер: Админ, дата: 18-12-2012, 19:16, торрент скачан: 359 раз

Понравилась раздача? Посмотрите эти:
  • Подранки (Николай Губенко, драма, 1976) [DVDRip, Не требуется]
  • Журавушка (Николай Москаленко, драма, мелодрама, 1968) [DVDRip, Не требуетс ...
  • "Мерседес" уходит от погони (Юрий Ляшенко, военный, 1980) [DVDRip, Не требу ...
  • Дон Сезар де Базан (2 части из 2) (Ян Фрид, мюзикл, комедия, 1989) [DVDRip, ...
  • Дневной поезд (Инесса Селезнева, драма, 1976) [DVDRip, Не требуется]
  • Дама с собачкой (Иосиф Хейфиц, драма, мелодрама, 1959) [DVDRip, Не требуетс ...
  • Последняя жертва (Петр Тодоровский, драма, мелодрама, 1975) [DVDRip, Не тре ...
  • По главной улице с оркестром (Петр Тодоровский, мюзикл, мелодрама, комедия, ...
  • Волшебная сила (Наум Бирман, мюзикл, комедия, семейный, 1970) [DVDRip, Не т ...
  • Небесные ласточки (2 части из 2) (Леонид Квинихидзе, мюзикл, драма, комедия ...
  • Моя любовь (Владимир Корш-Саблин, мюзикл, мелодрама, комедия, 1940) [DVDRip ...
  • Мама (Элизабета Бостан, мюзикл, фэнтези, семейный, 1976) [DVDRip, Не требуе ...
  • Князь Игорь (Роман Тихомиров, мюзикл, приключения, 1969) [DVDRip, Не требуе ...
  • Карнавал (2 части из 2) (Татьяна Лиознова, мюзикл, комедия, 1981) [DVDRip, ...
  • Сватовство гусара (Светлана Дружинина, мюзикл, мелодрама, комедия, 1979) [D ...
  • Пиковая Дама (Роман Тихомиров, мюзикл, драма, 1961) [DVDRip, Не требуется]
  • Табачный капитан (Игорь Усов, мюзикл, комедия, история, 1972) [DVDRip, Не т ...
  • Светлая личность (Александр Павловский, мюзикл, комедия, 1989) [DVDRip, Не ...
  • Самый красивый конь (Степан Пучинян, мелодрама, 1976) [DVDRip, Не требуется ...
  • Ханума (2 части из 2) (Георгий Товстоногов, мюзикл, комедия, 1978) [DVDRip, ...
  • Сказ про то, как царь Петр арапа женил (Александр Митта, мюзикл, мелодрама, ...
  • Мой ласковый и нежный зверь (Эмиль Лотяну) [1978 г., драма, DVDRip (полная ...
  • Табор уходит в небо (Эмиль Лотяну, драма, 1976) [DVDRip, оригинал]
  • В добрый час! (Виктор Эйсымонт, драма, мелодрама, 1956) [DVDRip, Не требует ...
  • За облаками – небо (Юрий Егоров, драма, 1973) [DVDRip, Не требуется]
  • Информация
    Посетители, находящиеся в группе Гости, не могут оставлять комментарии к данной публикации.