вход на сайт

Имя пользователя :
Пароль :

Восстановление пароля Регистрация
Соловей (Надежда Кошеверова, мюзикл, семейный, 1979) [DVDRip, Не требуется]
Рейтинг:
(голосов: 1)



[img]{THEME}/images/logopost.png[/img]



Соловей

Год выпуска: 1979
Страна: СССР
Производство: Ленфильм
Жанр: мюзикл, семейный

Режиссёр: Надежда Кошеверова
В ролях: Светлана Смирнова, Юрий Васильев, Александр Вокач, Зиновий Гердт, Николай Трофимов, Александр Демьяненко, Константин Адашевский, Сергей Филиппов, Николай Караченцов, Мария Барабанова

Перевод: Не требуется
Субтитры: Отсутствуют

Описание:
Неожиданная встреча бедного подмастерья с волшебником круто меняет судьбу молодого человека — вдруг его назначают наследником престола вместо умершего монарха… И он попадает в мир лжи и лицемерия, льстецов и подхалимов.


Дополнительно:
MediaInfo ▼Text
Общее
Полное имя :J:СоловейSolovej.1979.avi
Формат :AVI
Размер :702 MiB
Продолжительность :01:20:03.720
Общий поток :1 225 Kbps
Программа кодирования :VirtualDubMod 1.5.4.1 (build 2178/release)
Библиотека кодирования :VirtualDub build 32706/release

Видео
Идентификатор :0
Формат :MPEG-4 Visual
Профиль формата :Advanced [email protected]
Параметр BVOP формата :1
Параметр Qpel формата :No
Параметр GMC формата :0
Параметр Matrix формата :Custom
Идентификатор кодека :XVID
Продолжительность :1h 20mn 3s 720ms
Битрейт :1 024 Kbps
Ширина :704 pixels
Высота :304 pixels
Соотношение сторон :2.316
Частота кадров :25.000 fps
Глубина цвета :8 bits
Подвыборка цветности :4:2:0
Цветовое пространство :YUV
Тип развертки :Progressive
Бит/(Пиксели*Кадры) :0.191
Размер потока :586 MiB (84%)
Библиотека кодирования :XviD0063

Аудио #1
Идентификатор :1
Формат :AC-3
Формат/Информация :Audio Coding 3
Идентификатор кодека :2000
Продолжительность :01:20:01.696
Вид битрейта :Constant
Битрейт :192 Kbps
Канал(ы) :2 channels
Расположение каналов :Front: L R
Частота :48.0 KHz
Битовая глубина :16 bits
Метод сжатия :Lossy
Размер потока :110 MiB (16%)Тех. данные:
Качество:DVDRip
Продо
5318008c5236fe154650f8014d9820e74879ccfaСоловей (Надежда Кошеверова, мюзикл, семейный, 1979) [DVDRip, Не требуется] Соловей (Надежда Кошеверова, мюзикл, семейный, 1979) [DVDRip, Не требуется] " />

Аплоадер: Админ, дата: 17-12-2012, 17:52, торрент скачан: 359 раз

Понравилась раздача? Посмотрите эти:
  • Медовый месяц (Надежда Кошеверова, мелодрама, комедия, 1956) [DVDRip, Не тр ...
  • Старшина (Николай Кошелев, драма, 1979) [DVDRip, Не требуется]
  • Ах, водевиль, водевиль... (Георгий Юнгвальд-Хилькевич, мюзикл, комедия, 197 ...
  • Волшебная сила (Наум Бирман, мюзикл, комедия, семейный, 1970) [DVDRip, Не т ...
  • И вот пришел Бумбо... (Надежда Кошеверова, В. Апананский, Н. Окунцова, семе ...
  • Завтрак на траве (Николай Александрович, детский, комедия, 1979) [DVDRip, Н ...
  • Ослиная шкура (Надежда Кошеверова, фэнтези, мелодрама, комедия, семейный, 1 ...
  • Моя любовь (Владимир Корш-Саблин, мюзикл, мелодрама, комедия, 1940) [DVDRip ...
  • Мама (Элизабета Бостан, мюзикл, фэнтези, семейный, 1976) [DVDRip, Не требуе ...
  • Сватовство гусара (Светлана Дружинина, мюзикл, мелодрама, комедия, 1979) [D ...
  • Царевич Проша (Надежда Кошеверова, фэнтези, семейный, 1947) [DVDRip, Не тре ...
  • Как Иванушка-дурачок за чудом ходил (Надежда Кошеверова, фэнтези, семейный, ...
  • Табачный капитан (Игорь Усов, мюзикл, комедия, история, 1972) [DVDRip, Не т ...
  • Тень (Реставрация) (Надежда Кошеверова, фэнтези, драма, мелодрама, комедия, ...
  • Трест, который лопнул (3 части из 3) (Александр Павловский, мюзикл, комедия ...
  • Сегодня – новый аттракцион (Надежда Кошеверова, Аполлинарий Дудко, комедия, ...
  • Старая, старая сказка (Надежда Кошеверова, фэнтези, семейный, 1968) [DVDRip ...
  • Светлая личность (Александр Павловский, мюзикл, комедия, 1989) [DVDRip, Не ...
  • Приключения маленького папы (Дмитрий Крупко, детский, комедия, 1979) [DVDRi ...
  • Проданный смех (2 части из 2) (Леонид Нечаев, мюзикл, фэнтези, приключения, ...
  • Соловей (Надежда Кошеверова, Сказка, семейный, 1979) [DVDRip, не требуется] ...
  • Шофер поневоле (Надежда Кошеверова, комедия, 1958) [DVDRip, Не требуется]
  • Каин XVIII (Надежда Кошеверова, Михаил Шапиро, фэнтези, мелодрама, приключе ...
  • Автомобиль, скрипка и собака Клякса (Ролан Быков, мюзикл, семейный, 1974) [ ...
  • Добряки (Карен Шахназаров, комедия, 1979) [DVDRip, Не требуется]
  • Информация
    Посетители, находящиеся в группе Гости, не могут оставлять комментарии к данной публикации.