вход на сайт

Имя пользователя :
Пароль :

Восстановление пароля Регистрация
Слезы капали (Георгий Данелия, драма, 1982) [DVDRip, Не требуется]
Рейтинг:
(голосов: 1)



[img]{THEME}/images/logopost.png[/img]



Слезы капали

Год выпуска: 1982
Страна: СССР
Производство: Мосфильм
Жанр: драма

Режиссёр: Георгий Данелия
В ролях: Евгений Леонов, Ия Саввина, Нина Гребешкова, Ольга Машная, Александра Яковлева, Борис Андреев, Лев Перфилов, Борислав Брондуков, Петр Щербаков, Нина Русланова

Перевод: Не требуется
Субтитры: Отсутствуют

Описание:
Любящий муж и отец, отзывчивый сосед и сослуживец, словом, душа-человек в один прекрасный день превратился в недовольного всем чинушу и формалиста. А всё потому, что в глаз попал осколок волшебного зеркала.


Дополнительно:
Знаете ли вы, что... ▼
В фильме звучит песня «Друзей теряют только раз», написанная на стихи поэта и сценариста Геннадия Шпаликова, который незадолго до съёмок фильма покончил жизнь самоубийством. Исполняет песню Георгий Данелия.

MediaInfo ▼Text
Общее
Полное имя :J:Слезы капалиСлезы капали.avi
Формат :AVI
Размер :699 MiB
Продолжительность :01:24:00.080
Общий поток :1 164 Kbps

Видео
Идентификатор :0
Формат :MPEG-4 Visual
Профиль формата :Advanced [email protected]
Параметр BVOP формата :1
Параметр Qpel формата :No
Параметр GMC формата :0
Параметр Matrix формата :Default (MPEG)
Идентификатор кодека :XVID
Продолжительность :1h 24mn 0s 80ms
Битрейт :1 027 Kbps
Ширина :640 pixels
Высота :480 pixels
Соотношение сторон :1.333
Частота кадров :25.000 fps
Глубина цвета :8 bits
Подвыборка цветности :4:2:0
Цветовое пространство :YUV
Тип развертки :Progressive
Бит/(Пиксели*Кадры) :0.134
Размер потока :617 MiB (88%)
Библиотека кодирования :XviD0047

Аудио #1
Идентификатор :1
Формат :MPEG Audio
Идентификатор кодека :55
Продолжительность :01:24:00.072
Вид битрейта :Constant
Битрейт :128 Kbps
Канал(ы) :2 channels
Частота :48.0 KHz
Метод сжатия :Lossy
Размер потока :76.9 MiB (11%)
Язык : cТех. данные:
Качество:DVDRip
Продолжительность:01:24:00 час

Формат: AVI
Видео кодек: XviD
Аудио
cf513417d2adfed8e3b6143f45d2c28a3e42e9b9Слезы капали (Георгий Данелия, драма, 1982) [DVDRip, Не требуется] Слезы капали (Георгий Данелия, драма, 1982) [DVDRip, Не требуется] " />

Аплоадер: Админ, дата: 16-12-2012, 23:20, торрент скачан: 359 раз

Понравилась раздача? Посмотрите эти:
  • Афоня (Георгий Данелия, драма, мелодрама, комедия, 1975) [BDRip, Не требует ...
  • Кин-дза-дза! (Георгий Данелия, Фантастика, драма, комедия , 1986) [Blu-Ray ...
  • Кин-дза-дза! (Георгий Данелия, Фантастика, драма, комедия, 1986г.) [HDTV 10 ...
  • Сережа (Георгий Данелия, Игорь Таланкин, драма, 1960) [DVDRip, Не требуется ...
  • Афоня (Георгий Данелия, драма, мелодрама, комедия, 1975) [HDTV 1080i, Не тр ...
  • Божья тварь (Галина Данелия-Юркова, комедия, 1991) [DVDRip, Не требуется]
  • Возвращение резидента (2 части из 2) (Вениамин Дорман, триллер, 1982) [DVDR ...
  • Француз (Галина Данелия-Юркова, драма, комедия, 1988) [DVDRip, Не требуется ...
  • Совсем пропащий (Георгий Данелия, приключения, 1973) [DVDRip, Не требуется] ...
  • Афоня (Георгий Данелия, драма, мелодрама, комедия, 1975) [DVDRip, Не требуе ...
  • Осенний марафон (Георгий Данелия, драма, мелодрама, комедия, 1979) [DVDRip, ...
  • Не горюй! (Георгий Данелия, драма, 1968) [DVDRip, Профессиональный (полное ...
  • Мимино (Георгий Данелия, комедия, 1977) [DVDRip-AVC, Не требуется]
  • Афоня (Георгий Данелия, комедия, 1975) [DVDRip]
  • Слезы капали (Георгий Данелия, 1982) [DVDRip]
  • Осенний марафон (Георгий Данелия, трагикомедия, 1979) [DVDRip]
  • Пиковая дама (Игорь Масленников, драма, 1982) [DVDRip, Не требуется]
  • Паспорт (Георгий Данелия, комедия, 1990) [DVDRip, Не требуется]
  • Печники (Виктор Храмов, драма, 1982) [DVDRip, Не требуется]
  • Хареба и Гоги (Георгий Шенгелая, драма, приключения, 1987) [DVDRip, Не треб ...
  • Спортлото-82 (Леонид Гайдай, комедия, приключения, 1982) [DVDRip, Не требуе ...
  • Тридцать три (Георгий Данелия, комедия, 1965) [DVDRip, Не требуется]
  • Путь к причалу (Георгий Данелия, драма, 1963) [DVDRip, Не требуется]
  • Кин-Дза-Дза! (Георгий Данелия / фантастика, комедия / 1986г) [DVDRip AVC]
  • Орел и решка (Георгий Данелия, Комедия, 1995) [DVDRip, Оригинал]
  • Информация
    Посетители, находящиеся в группе Гости, не могут оставлять комментарии к данной публикации.