вход на сайт

Имя пользователя :
Пароль :

Восстановление пароля Регистрация
Славный малый (Борис Барнет, военный, 1943) [DVDRip, Не требуется]
Рейтинг:
(голосов: 1)



[img]{THEME}/images/logopost.png[/img]



Славный малый

Год выпуска: 1943
Страна: СССР
Производство: Мосфильм, Алма-Атинская ЦОКС
Жанр: военный

Режиссёр: Борис Барнет
В ролях: Е. Григорьев, О. Якунина, Елена Сипавина, Виктор Добровольский, Николай Боголюбов
,
Л. Ткачев, Николай Степанов

Перевод: Не требуется
Субтитры: Отсутствуют

Описание:
История французского летчика, сбитого фашистами и попавшего в партизанский отряд на территории Новгородской области…


Дополнительно:
MediaInfo ▼Text
Общее
Полное имя :D:. РАЗДАЧАСлавный малыйSlavnyy.malyy.1942.DivX.DVDRip.avi
Формат :AVI
Размер :700 MiB
Продолжительность :01:06:29.040
Общий поток :1 472 Kbps
Программа кодирования :VirtualDubMod 1.5.4.1 (build 2178/release)
Библиотека кодирования :VirtualDubMod build 2178/release

Видео
Идентификатор :0
Формат :MPEG-4 Visual
Параметр BVOP формата :1
Параметр Qpel формата :No
Параметр GMC формата :0
Параметр Matrix формата :Default (H.263)
Идентификатор кодека :DX50
Продолжительность :1h 6mn 29s 40ms
Битрейт :1 273 Kbps
Ширина :704 pixels
Высота :528 pixels
Соотношение сторон :1.333
Частота кадров :25.000 fps
Глубина цвета :8 bits
Подвыборка цветности :4:2:0
Цветовое пространство :YUV
Тип развертки :Progressive
Бит/(Пиксели*Кадры) :0.137
Размер потока :605 MiB (86%)
Библиотека кодирования :DivX503b2510p

Аудио #1
Идентификатор :1
Формат :AC-3
Формат/Информация :Audio Coding 3
Идентификатор кодека :2000
Продолжительность :01:06:28.800
Вид битрейта :Constant
Битрейт :192 Kbps
Канал(ы) :2 channels
Расположение каналов :Front: L R
Частота :48.0 KHz
Битовая глубина :16 bits
Метод сжатия :Lossy
Размер потока :91.3 MiB (13%)
Язык :RussianТех. данные:
Качество:DVDRip
Продолжительность:01:06:20 час

Формат: AVI
Видео к
5fc2c3ccf07983afb58dac755c24dc3a2e305cc2Славный малый (Борис Барнет, военный, 1943) [DVDRip, Не требуется] Славный малый (Борис Барнет, военный, 1943) [DVDRip, Не требуется] " />

Аплоадер: Админ, дата: 16-12-2012, 23:16, торрент скачан: 359 раз

Понравилась раздача? Посмотрите эти:
  • Борец и клоун (Борис Барнет, Константин Юдин, драма, спорт, 1957) [DVDRip, ...
  • Бой под Соколом (Александр Разумный, военный, 1942) [DVDRip, Не требуется]
  • "Мерседес" уходит от погони (Юрий Ляшенко, военный, 1980) [DVDRip, Не требу ...
  • Аленка (Борис Барнет, комедия, 1961) [DVDRip, Не требуется]
  • Летят журавли (Михаил Калатозов, драма, мелодрама, военный, 1957) [DVDRip, ...
  • Воздушный извозчик (Герберт Раппапорт, мюзикл, комедия, 1943) [DVDRip, Не т ...
  • Таинственная находка (Борис Бунеев, детский, приключения, 1954) [DVDRip, Не ...
  • Полонез Огинского (Лев Голуб, драма, военный, 1971) [DVDRip, Не требуется]
  • Путевка в Жизнь (Николай Экк, драма, 1931) [DVDRip, Не требуется]
  • Парень из нашего города (Александр Столпер, Борис Иванов, драма, военный, 1 ...
  • Оптимистическая трагедия (Самсон Самсонов, драма, военный, история, 1963) [ ...
  • Окраина // Последний табор (Борис Барнет, Моисей Голдблат, Евгений Шнейдер, ...
  • Повесть о «Неистовом» (Борис Бабочкин, драма, военный, 1947) [DVDRip, Перев ...
  • Родина зовет (Александр Мачерет, военный, 1936) [DVDRip, Не требуется]
  • Повесть о настоящем человеке (Александр Столпер, драма, военный, 1948) [DVD ...
  • Карусель (Михаил Швейцер, комедия, 1970) [DVDRip, Не требуется]
  • Сотрудник ЧК (Борис Волчек, боевик, история, 1963) [DVDRip, Не требуется]
  • Полустанок (Борис Барнет, мелодрама, комедия, 1963) [DVDRip, Не требуется]
  • Александр Пархоменко (Леонид Луков, военный, биография, история, 1942) [DVD ...
  • Кутузов (Владимир Петров, драма, 1943) [DVDRip, Не требуется]
  • Информация
    Посетители, находящиеся в группе Гости, не могут оставлять комментарии к данной публикации.