вход на сайт

Имя пользователя :
Пароль :

Восстановление пароля Регистрация
Сегодня – новый аттракцион (Надежда Кошеверова, Аполлинарий Дудко, комедия, 1965) [DVDRip, Не требуется]
Рейтинг:
(голосов: 1)



[img]{THEME}/images/logopost.png[/img]



Сегодня – новый аттракцион

Год выпуска: 1965
Страна: СССР
Производство: Ленфильм
Жанр: комедия

Режиссёр: Надежда Кошеверова, Аполлинарий Дудко
В ролях: Отар Коберидзе, Марина Полбенцева, Игорь Горбачев, Фаина Раневская, Владимир Татосов, Павел Суханов, Михаил Глузский, Лев Лемке, Гелий Сысоев, Михаил Иванов

Перевод: Не требуется
Субтитры: Отсутствуют

Описание:
Директор цирка уговаривает укротителя Марата не выступать с новым номером самому, а передать его своей жене Вале. Номер оказывается успешным, и Валя становится «звездой» цирка.


Дополнительно:
MediaInfo ▼Text
Общее
Полное имя :J:Сегодня – новый аттракционSegodnya.novyy.attraktsion.1965.avi
Формат :AVI
Размер :1.37 GiB
Продолжительность :01:29:06.400
Общий поток :2 204 Kbps
Программа кодирования :VirtualDubMod 1.5.10.3 | www.virtualdub-fr.org || (build 2550/release)

Видео
Идентификатор :0
Формат :MPEG-4 Visual
Профиль формата :Advanced [email protected]
Параметр BVOP формата :2
Параметр Qpel формата :No
Параметр GMC формата :0
Параметр Matrix формата :Default (MPEG)
Идентификатор кодека :XVID
Продолжительность :1h 29mn 6s 400ms
Битрейт :2 003 Kbps
Ширина :720 pixels
Высота :352 pixels
Соотношение сторон :2.045
Частота кадров :25.000 fps
Глубина цвета :8 bits
Подвыборка цветности :4:2:0
Цветовое пространство :YUV
Тип развертки :Progressive
Бит/(Пиксели*Кадры) :0.316
Размер потока :1.25 GiB (91%)
Библиотека кодирования :XviD0064

Аудио #1
Идентификатор :1
Формат :AC-3
Формат/Информация :Audio Coding 3
Идентификатор кодека :2000
Продолжительность :01:29:06.208
Вид битрейта :Constant
Битрейт :192 Kbps
Канал(ы) :2 channels
Расположение каналов :Front: L R
Частота :48.0 KHz
Битовая глубина :16 bits
Метод сжатия :Lossy
Размер потока :122 MiB (9%)Тех. данные:
Качество:DVDRip
Продолжительность:01:29:00 час

Ф
4273f49fbacfd592db2242ecb77ccd22246f1d47Сегодня – новый аттракцион (Надежда Кошеверова, Аполлинарий Дудко, комедия, 1965) [DVDRip, Не требуется] Сегодня – новый аттракцион (Надежда Кошеверова, Аполлинарий Дудко, комедия, 1965) [DVDRip, Не требуется] " />

Аплоадер: Админ, дата: 16-12-2012, 22:56, торрент скачан: 359 раз

Понравилась раздача? Посмотрите эти:
  • Акваланги на дне (Евгений Шерстобитов, боевик, приключения, семейный, 1965) ...
  • Медовый месяц (Надежда Кошеверова, мелодрама, комедия, 1956) [DVDRip, Не тр ...
  • Дни лётные (Николай Литус, Леонид Ризин, драма, 1965) [DVDRip, Не требуется ...
  • Пакет (Владимир Назаров, комедия, приключения, семейный, 1965) [DVDRip, Не ...
  • Город мастеров (Владимир Бычков, фэнтези, приключения, семейный, история, 1 ...
  • Гиперболоид инженера Гарина (Александр Гинцбург, фантастика, 1965) [DVDRip, ...
  • И вот пришел Бумбо... (Надежда Кошеверова, В. Апананский, Н. Окунцова, семе ...
  • Драма (Герман Ливанов, короткометражка, комедия, 1960) [DVDRip, Не требуетс ...
  • Ослиная шкура (Надежда Кошеверова, фэнтези, мелодрама, комедия, семейный, 1 ...
  • Что нового, кошечка? / Whats New Pussycat (Клайв Доннер, Ричард Талмадж, ко ...
  • Золушка (Надежда Кошеверова, Михаил Шапиро, мюзикл, фэнтези, мелодрама, ком ...
  • Фантазеры (Исаак Магитон, И. Сафарова, детский, 1965) [DVDRip, Не требуется ...
  • Укротительница тигров (Александр Ивановский, Надежда Кошеверова, мелодрама, ...
  • Царевич Проша (Надежда Кошеверова, фэнтези, семейный, 1947) [DVDRip, Не тре ...
  • Как Иванушка-дурачок за чудом ходил (Надежда Кошеверова, фэнтези, семейный, ...
  • Карусель (Михаил Швейцер, комедия, 1970) [DVDRip, Не требуется]
  • Тень (Реставрация) (Надежда Кошеверова, фэнтези, драма, мелодрама, комедия, ...
  • Спящий лев (Александр Файнциммер, комедия, 1965) [DVDRip, Не требуется]
  • Старая, старая сказка (Надежда Кошеверова, фэнтези, семейный, 1968) [DVDRip ...
  • Соловей (Надежда Кошеверова, мюзикл, семейный, 1979) [DVDRip, Не требуется] ...
  • Тридцать три (Георгий Данелия, комедия, 1965) [DVDRip, Не требуется]
  • Стряпуха (Эдмонд Кеосаян, комедия, 1965) [DVDRip, Не требуется]
  • Шофер поневоле (Надежда Кошеверова, комедия, 1958) [DVDRip, Не требуется]
  • Вера, надежда, любовь (Владимир Грамматиков, приключения, 1984) [DVDRip, Не ...
  • Каин XVIII (Надежда Кошеверова, Михаил Шапиро, фэнтези, мелодрама, приключе ...
  • Информация
    Посетители, находящиеся в группе Гости, не могут оставлять комментарии к данной публикации.