вход на сайт

Имя пользователя :
Пароль :

Восстановление пароля Регистрация
Боевой киносборник 7 (Леонид Альцев, Альберт Гендельштейн, Климентий Минц, комедия, военный, 1941) [DVDRip, Не требуется]
Рейтинг:
(голосов: 1)



[img]{THEME}/images/logopost.png[/img]



Боевой киносборник 7

Год выпуска: 1941
Страна: СССР
Производство: Союздетфильм
Жанр: комедия, военный

Режиссёр: Леонид Альцев, Альберт Гендельштейн, Климентий Минц
В ролях: Эраст Гарин, Владимир Канцель, Николай Охлопков, Иван Любезнов, Сергей Мартинсон, Павел Оленев, Владимир Владиславский, Михаил Яншин, Константин Зубов, Надежда Борская

Перевод: Не требуется
Субтитры: Отсутствуют

Описание:
Сборник состоит из шести новелл:

Ровно в семь. О бесстрашных чешских патриотах, организовавших в Праге, буквально под носом врага, подпольную радиостанцию.

Эликсир бодрости. О героях второй мировой войны и трусости немецких солдат, способных идти в атаку лишь в пьяном состоянии.

Приемщик катастроф.О французских рабочих-патриотах, выпускающих для оккупантов заведомо непригодные самолеты.

Самый храбрый.О немецком солдате, искренне желающему своему фюреру оказаться рядом с ним на поле боя в момент, когда под ногами разорвется снаряд.

Настоящий патриот.О чешском солдате, который, находясь на службе в немецкой армии, с честью и радостью выполняет свои обязанности по захоронению фашистов.

Белая ворона.Памфлет о немецком офицере второй мировой войны, обирающем мирных жителей оккупированной Голландии под видом изучения культурного наследия.


Дополнительно:
MediaInfo ▼Text
Общее
Полное имя :D:. РАЗДАЧАСказки Александра Роу1. Сказки Александра РоуБоевой киносборник 7Боевой киносборник 7.avi
Формат :AVI
Размер :886 MiB
Продолжительность :01:09:54.000
Общий поток :1 772 Kbps
Программа кодирования :Lavf50.3.0

Видео
Идентификатор :0
Формат :xvid
Идентификатор кодека :xvid
Продолжительность :1h 9mn 54s 0ms
Битрейт :1 600 Kbps
Ширина :696 pixels
Высота :540 pixels
Соотношение сторон :1.289
Частота кадров :25.000 fps
Бит/(Пиксели*Кадры) :0.170
Размер потока :800 MiB (90%)

Аудио #1
Идентификатор :1
Формат :MPEG Audio
Идентификатор кодека :55
Продолжительность :01:09:53.933
Вид битрейта :Constant
Битрейт :160 Kbps
Канал(ы) :2 channels
Частота :44.1 KHz
Метод сжатия :Lossy
Размер потока :80.0 MiB (9%)Тех. данные:
Качество:DVDRip
Продолжительность:01:09:50 час

Формат: AVI
Видео кодек: xvid
Аудио кодек: MPA1L3
Видео: 696 x 540 (1.289
8e15e60ced323fef739c0a9f57b03f2e875da065Боевой киносборник 7 (Леонид Альцев, Альберт Гендельштейн, Климентий Минц, комедия, военный, 1941) [DVDRip, Не требуется] Боевой киносборник 7 (Леонид Альцев, Альберт Гендельштейн, Климентий Минц, комедия, военный, 1941) [DVDRip, Не требуется] " />

Аплоадер: Админ, дата: 16-12-2012, 06:21, торрент скачан: 359 раз

Понравилась раздача? Посмотрите эти:
  • Бронетехника Второй Мировой Войны. Panzer III (Документальный, Военный 2009 ...
  • Жаворонок (Никита Курихин, Леонид Менакер, драма, военный, 1964) [DVDRip, Н ...
  • В небе «ночные ведьмы» (Евгения Жигуленко, военный, 1981) [DVDRip, Не требу ...
  • "Мерседес" уходит от погони (Юрий Ляшенко, военный, 1980) [DVDRip, Не требу ...
  • Меж высоких хлебов (Леонид Миллионщиков, комедия, 1970) [DVDRip, Не требует ...
  • Пакет (Владимир Назаров, комедия, приключения, семейный, 1965) [DVDRip, Не ...
  • Баллада о солдате (Григорий Чухрай, драма, мелодрама, военный, 1959) [DVDRi ...
  • Опекун (Эдгар Ходжикян, Альберт С. Мкртчян, комедия, 1970) [DVDRip, Не треб ...
  • Опасно для жизни! (Леонид Гайдай, комедия, 1985) [DVDRip, Не требуется]
  • Не покидай… (Леонид Нечаев, мюзикл, комедия, семейный, 1989) [DVDRip, Не тр ...
  • Левша (Сергей Овчаров, драма, комедия, 1986) [DVDRip, Не требуется]
  • Баллада о солдате (Григорий Чухрай, Военный, 1959) [DVDRip, Не требуется]
  • Свадьба (Исидор Анненский, комедия, 1944) [DVDRip, Не требуется]
  • Трое суток после бессмертия (Владимир Довгань, военный, история, 1963) [DVD ...
  • Солдат и слон (Дмитрий Кесаянц, комедия, военный, 1977) [DVDRip, Не требует ...
  • Боевой киносборник. Выпуски №1-№ 12 (военный, драма, комедия, 1941-1942) [D ...
  • Совершенно серьезно (Леонид Гайдай, Эльдар Рязанов, Владимир Семаков, коме ...
  • Спортлото-82 (Леонид Гайдай, комедия, приключения, 1982) [DVDRip, Не требуе ...
  • Аты-Баты, шли солдаты (Леонид Быков) [1976, Драма, Военный, DVDRip]
  • Живите в радости (Леонид Миллионщиков, комедия, 1978) [DVDRip, Не требуется ...
  • Земля Санникова (Альберт С. Мкртчян, Леонид Попов, приключения, 1973) [DVDR ...
  • Александр Пархоменко (Леонид Луков, военный, биография, история, 1942) [DVD ...
  • Лермонтов (Альберт Гендельштейн, драма, биография, 1943) [DVDRip, Не требу ...
  • Мичман Панин (Михаил Швейцер, приключения, военный, история, 1960) [DVDRip, ...
  • Сердца четырех (Константин Юдин, мелодрама, комедия, 1941) [DVDRip, Не треб ...
  • Информация
    Посетители, находящиеся в группе Гости, не могут оставлять комментарии к данной публикации.