вход на сайт

Имя пользователя :
Пароль :

Восстановление пароля Регистрация
Майская ночь, или Утопленница (Александр Роу, фэнтези, комедия, 1952) [DVDRip, Не требуется]
Рейтинг:
(голосов: 1)



[img]{THEME}/images/logopost.png[/img]



Майская ночь, или Утопленница

Год выпуска: 1952
Страна: СССР
Производство: Студия Горького
Жанр: фэнтези, комедия

Режиссёр: Александр Роу
В ролях: Николай Досенко, Татьяна Конюхова, Александр Хвыля, Лилия Юдина, Галина Григорьева, Георгий Милляр, Александр Жуков, Габриэль Нелидов, Антон Дунайский, Василий Бокарев

Перевод: Не требуется
Субтитры: Отсутствуют

Описание:
Мистическая фантазия по одноименной повести Н. В. Гоголя.
Сын упрямого сельского головы никак не может получить отцовского согласия на венчание с простой казачкой. На помощь парубку неожиданно приходит «нечистая сила»…


Дополнительно:
MediaInfo ▼Text
Общее
Полное имя :D:. РАЗДАЧАМайская ночь, или Утопленница.DVDRip.avi
Формат :AVI
Размер :745 MiB
Продолжительность :00:55:15.120
Общий поток :1 884 Kbps
Программа кодирования :VirtualDubModRus 1.5.10.2 (build 2542/release)
Библиотека кодирования :VirtualDubMod build 2542/release

Видео
Идентификатор :0
Формат :MPEG-4 Visual
Параметр BVOP формата :1
Параметр Qpel формата :No
Параметр GMC формата :0
Параметр Matrix формата :Default (H.263)
Идентификатор кодека :DX50
Продолжительность :55mn 15s 120ms
Битрейт :1 682 Kbps
Ширина :688 pixels
Высота :512 pixels
Соотношение сторон :1.344
Частота кадров :25.000 fps
Глубина цвета :8 bits
Подвыборка цветности :4:2:0
Цветовое пространство :YUV
Тип развертки :Progressive
Бит/(Пиксели*Кадры) :0.191
Размер потока :665 MiB (89%)
Библиотека кодирования :DivX503b2676p

Аудио #1
Идентификатор :1
Формат :AC-3
Формат/Информация :Audio Coding 3
Идентификатор кодека :2000
Продолжительность :00:55:15.104
Вид битрейта :Constant
Битрейт :192 Kbps
Канал(ы) :2 channels
Расположение каналов :Front: L R
Частота :48.0 KHz
Битовая глубина :16 bits
Метод сжатия :Lossy
Размер потока :75.9 MiB (10%)Тех. данные:
Качество:DVDRip
Продолжительность:00:
d124cc6c15f70a36d2927e37b150b9c3d22b1fc4Майская ночь, или Утопленница (Александр Роу, фэнтези, комедия, 1952) [DVDRip, Не требуется] Майская ночь, или Утопленница (Александр Роу, фэнтези, комедия, 1952) [DVDRip, Не требуется] " />

Аплоадер: Админ, дата: 16-12-2012, 06:14, торрент скачан: 359 раз

Понравилась раздача? Посмотрите эти:
  • На подмостках сцены (Константин Юдин, драма, комедия, 1956) [DVDRip, Не тре ...
  • Шанс (Александр Майоров, фантастика, фэнтези, мелодрама, комедия, приключен ...
  • Четвертый (Александр Столпер, драма, 1972) [DVDRip, Не требуется]
  • Гиперболоид инженера Гарина (Александр Гинцбург, фантастика, 1965) [DVDRip, ...
  • Завтрак на траве (Николай Александрович, детский, комедия, 1979) [DVDRip, Н ...
  • Ослиная шкура (Надежда Кошеверова, фэнтези, мелодрама, комедия, семейный, 1 ...
  • Комиссар (Александр Аскольдов, драма, военный, 1967) [DVDRip, Не требуется] ...
  • Майская ночь или утопленница (Александр Роу) [1952 г., ужасы, комедия, DVDR ...
  • Огонь, вода и ... медные трубы // Золотые рога // Варвара-краса, длинная ко ...
  • Как Иванушка-дурачок за чудом ходил (Надежда Кошеверова, фэнтези, семейный, ...
  • По щучьему веленью // Конек-Горбунок (Александр Роу, фэнтези, семейный, 193 ...
  • Светлая личность (Александр Павловский, мюзикл, комедия, 1989) [DVDRip, Не ...
  • Скверный анекдот (Александр Алов, Владимир Наумов, комедия, 1966) [DVDRip, ...
  • Старомодная комедия (Эра Савельева, Татьяна Березанцева, мелодрама, 1978) [ ...
  • Проделки в старинном духе (Александр Панкратов, комедия, 1986) [DVDRip, Не ...
  • Садко (Александр Птушко, фэнтези, приключения, 1952) [DVDRip, Не требуется] ...
  • Пока бьют часы (Геннадий Васильев, фэнтези, семейный, 1976) [DVDRip, Не тре ...
  • Болотные солдаты (Александр Мачерет, драма, военный, 1938) [DVDRip, Не треб ...
  • Драгоценный подарок (Александр Роу, семейный, 1956) [DVDRip, Не требуется]
  • Дядюшкин сон (2 части из2) (Александр Орлов, драма, комедия, 1981) [DVDRip, ...
  • Информация
    Посетители, находящиеся в группе Гости, не могут оставлять комментарии к данной публикации.