вход на сайт

Имя пользователя :
Пароль :

Восстановление пароля Регистрация
У матросов нет вопросов (Владимир Роговой, мюзикл, комедия, 1980) [DVDRip, Не требуется]
Рейтинг:
(голосов: 1)



[img]{THEME}/images/logopost.png[/img]



У матросов нет вопросов

Год выпуска: 1980
Страна: СССР
Производство: Студия Горького
Жанр: мюзикл, комедия

Режиссёр: Владимир Роговой
В ролях: Наталья Казначеева, Вадим Андреев, Татьяна Пельтцер, Михаил Пуговкин, Николай Денисов, Людмила Хитяева, Вадим Захарченко, Юрий Саранцев, Евгения Ханаева, Георгий Юматов

Перевод: Не требуется
Субтитры: Отсутствуют

Описание:
Алька Шанина и Саня Фокин познакомились в самолете. Алька собиралась поступать в театральный институт, а Саня, матрос рыболовецкого сейнера, направлялся через столицу в родную деревню на свадьбу. Из-за непогоды самолет совершил вынужденную посадку. Альке и Сане пришлось провести вместе три дня…


Дополнительно:
MediaInfo ▼Text
Общее
Полное имя :J:У матросов нет вопросовУ матросов нет вопросов.avi
Формат :AVI
Размер :1.37 GiB
Продолжительность :01:21:10.000
Общий поток :2 418 Kbps
Программа кодирования :VirtualDubMod 1.5.10.3 | www.virtualdub-fr.org || (build 2550/release)

Видео
Идентификатор :0
Формат :MPEG-4 Visual
Профиль формата :Advanced [email protected]
Параметр BVOP формата :3
Параметр Qpel формата :No
Параметр GMC формата :0
Параметр Matrix формата :Default (MPEG)
Идентификатор кодека :XVID
Продолжительность :1h 21mn 10s 0ms
Битрейт :2 152 Kbps
Ширина :720 pixels
Высота :552 pixels
Соотношение сторон :1.304
Частота кадров :25.000 fps
Глубина цвета :8 bits
Подвыборка цветности :4:2:0
Цветовое пространство :YUV
Тип развертки :Progressive
Бит/(Пиксели*Кадры) :0.217
Размер потока :1.22 GiB (89%)
Библиотека кодирования :XviD0064

Аудио #1
Идентификатор :1
Формат :AC-3
Формат/Информация :Audio Coding 3
Идентификатор кодека :2000
Продолжительность :01:21:09.984
Вид битрейта :Constant
Битрейт :256 Kbps
Канал(ы) :2 channels
Расположение каналов :Front: L R
Частота :48.0 KHz
Битовая глубина :16 bits
Метод сжатия :Lossy
Размер потока :149 MiB (11%)
 
fe47c396b617b6490961a7b038eee7c017a6e743У матросов нет вопросов (Владимир Роговой, мюзикл, комедия, 1980) [DVDRip, Не требуется] У матросов нет вопросов (Владимир Роговой, мюзикл, комедия, 1980) [DVDRip, Не требуется] " />

Аплоадер: Админ, дата: 14-12-2012, 22:39, торрент скачан: 359 раз

Понравилась раздача? Посмотрите эти:
  • Биндюжник и король (2 части из 2) (Владимир Алеников, мюзикл, драма, комеди ...
  • Дон Сезар де Базан (2 части из 2) (Ян Фрид, мюзикл, комедия, 1989) [DVDRip, ...
  • Воздушный извозчик (Герберт Раппапорт, мюзикл, комедия, 1943) [DVDRip, Не т ...
  • Покровские ворота (2 части из 2) (Михаил Козаков, мюзикл, драма, мелодрама, ...
  • Баламут (Владимир Роговой, драма, комедия, 1978) [DVDRip, Не требуется]
  • Ах, водевиль, водевиль... (Георгий Юнгвальд-Хилькевич, мюзикл, комедия, 197 ...
  • Волшебная сила (Наум Бирман, мюзикл, комедия, семейный, 1970) [DVDRip, Не т ...
  • Моя любовь (Владимир Корш-Саблин, мюзикл, мелодрама, комедия, 1940) [DVDRip ...
  • Лес (Владимир Мотыль, драма, 1980) [DVDRip, Не требуется]
  • Князь Игорь (Роман Тихомиров, мюзикл, приключения, 1969) [DVDRip, Не требуе ...
  • Карнавал (2 части из 2) (Татьяна Лиознова, мюзикл, комедия, 1981) [DVDRip, ...
  • Сватовство гусара (Светлана Дружинина, мюзикл, мелодрама, комедия, 1979) [D ...
  • Первая перчатка (Андрей Фролов, мюзикл, мелодрама, комедия, спорт, 1946) [D ...
  • Табачный капитан (Игорь Усов, мюзикл, комедия, история, 1972) [DVDRip, Не т ...
  • Трест, который лопнул (3 части из 3) (Александр Павловский, мюзикл, комедия ...
  • Соловей (Надежда Кошеверова, мюзикл, семейный, 1979) [DVDRip, Не требуется] ...
  • Светлая личность (Александр Павловский, мюзикл, комедия, 1989) [DVDRip, Не ...
  • Шельменко-денщик (Андрей Тутышкин, мюзикл, комедия, 1971) [DVDRip, Не требу ...
  • Собака на сене (Реставрирован) (Ян Фрид, мюзикл, комедия, 1977) [DVDRip, Не ...
  • Ханума (2 части из 2) (Георгий Товстоногов, мюзикл, комедия, 1978) [DVDRip, ...
  • Пропало лето (Ролан Быков, Никита Орлов, комедия, семейный, 1963) [DVDRip, ...
  • Прощайте, фараоны! (Давид Черкасский, Вячеслав Винник, комедия, 1974) [DVDR ...
  • Беспокойное хозяйство (Михаил Жаров, мюзикл, комедия, военный, 1945) [DVDRi ...
  • Мексиканец (Владимир Каплуновский, драма, 1955) [DVDRip, Не требуется]
  • Каникулы Петрова и Васечкина, обыкновенные и невероятные (2 части из 2) (Вл ...
  • Информация
    Посетители, находящиеся в группе Гости, не могут оставлять комментарии к данной публикации.