вход на сайт

Имя пользователя :
Пароль :

Восстановление пароля Регистрация
Спящий лев (Александр Файнциммер, комедия, 1965) [DVDRip, Не требуется]
Рейтинг:
(голосов: 1)



[img]{THEME}/images/logopost.png[/img]



Спящий лев

Год выпуска: 1965
Страна: СССР
Производство: Мосфильм
Жанр: комедия

Режиссёр: Александр Файнциммер
В ролях: Константин Сорокин, Юрий Белов, Наталья Кустинская, Сергей Мартинсон, Сергей Филиппов, Людмила Иванова, Тамара Носова, Алексей Смирнов, Антонина Максимова, Эммануил Геллер

Перевод: Не требуется
Субтитры: Отсутствуют

Описание:
Замещая инкассатора, кассир столичного банка Цветков — робкий, нерешительный служака, любитель рыцарских романов — накануне своего сорокалетия весьма успешно задерживает двух грабителей. Герой становится более уверенным в себе и вскоре принимается за разоблачительную акцию против нечистоплотного сотрудника банка Телегина…


Дополнительно:
MediaInfo ▼Text
Общее
Полное имя :D:. РАЗДАЧАСпящий левСпящий лев.avi
Формат :AVI
Размер :1.15 GiB
Продолжительность :01:10:39.160
Общий поток :2 329 Kbps
Библиотека кодирования :VirtualDub-MPEG2 build 24586/release

Видео
Идентификатор :0
Формат :MPEG-4 Visual
Профиль формата :Advanced [email protected]
Параметр BVOP формата :2
Параметр Qpel формата :No
Параметр GMC формата :0
Параметр Matrix формата :Default (MPEG)
Идентификатор кодека :XVID
Продолжительность :1h 10mn 39s 160ms
Битрейт :2 192 Kbps
Ширина :704 pixels
Высота :304 pixels
Соотношение сторон :2.316
Частота кадров :25.000 fps
Глубина цвета :8 bits
Подвыборка цветности :4:2:0
Цветовое пространство :YUV
Тип развертки :Progressive
Бит/(Пиксели*Кадры) :0.410
Размер потока :1.08 GiB (94%)
Библиотека кодирования :XviD0046

Аудио #1
Идентификатор :1
Формат :MPEG Audio
Идентификатор кодека :55
Продолжительность :01:10:39.113
Вид битрейта :Constant
Битрейт :128 Kbps
Канал(ы) :2 channels
Частота :48.0 KHz
Метод сжатия :Lossy
Размер потока :64.7 MiB (5%)Тех. данные:
Качество:DVDRip
Продолжительность:01:10:30 час

Формат: AVI
Видео кодек: XviD
Аудио кодек: MPA1L3
Видео: 704 x 304 (2.35:1), 25.000 fps, 2 192 Kbps, 0.410 bit/pixel
Аудио
ad592505522ca0710cf4f11fa80633c8c36e0ad6Спящий лев (Александр Файнциммер, комедия, 1965) [DVDRip, Не требуется] Спящий лев (Александр Файнциммер, комедия, 1965) [DVDRip, Не требуется] " />

Аплоадер: Админ, дата: 14-12-2012, 22:29, торрент скачан: 359 раз

Понравилась раздача? Посмотрите эти:
  • Бой под Соколом (Александр Разумный, военный, 1942) [DVDRip, Не требуется]
  • Акваланги на дне (Евгений Шерстобитов, боевик, приключения, семейный, 1965) ...
  • Верность (Петр Тодоровский, мелодрама, военный, 1965) [DVDRip, Не требуется ...
  • Шанс (Александр Майоров, фантастика, фэнтези, мелодрама, комедия, приключен ...
  • Пакет (Владимир Назаров, комедия, приключения, семейный, 1965) [DVDRip, Не ...
  • Гиперболоид инженера Гарина (Александр Гинцбург, фантастика, 1965) [DVDRip, ...
  • Завтрак на траве (Николай Александрович, детский, комедия, 1979) [DVDRip, Н ...
  • Друг мой, Колька!.. (Александр Митта, Алексей Салтыков, драма, 1961) [DVDRi ...
  • Опекун (Эдгар Ходжикян, Альберт С. Мкртчян, комедия, 1970) [DVDRip, Не треб ...
  • Она вас любит (Семен Деревянский, Рафаил Суслович, мелодрама, комедия, 1956 ...
  • Левша (Сергей Овчаров, драма, комедия, 1986) [DVDRip, Не требуется]
  • Фантазеры (Исаак Магитон, И. Сафарова, детский, 1965) [DVDRip, Не требуется ...
  • Трактир на Пятницкой (Александр Файнциммер, криминал, детектив, 1977) [DVDR ...
  • Небывальщина (Сергей Овчаров, комедия, 1983) [DVDRip, Не требуется]
  • Танкер «Дербент» (Александр Файнциммер, приключения, 1940) [DVDRip, Не треб ...
  • Совершенно серьезно (Леонид Гайдай, Эльдар Рязанов, Владимир Семаков, коме ...
  • Сегодня – новый аттракцион (Надежда Кошеверова, Аполлинарий Дудко, комедия, ...
  • Соловей (Надежда Кошеверова, мюзикл, семейный, 1979) [DVDRip, Не требуется] ...
  • Тридцать три (Георгий Данелия, комедия, 1965) [DVDRip, Не требуется]
  • Стряпуха (Эдмонд Кеосаян, комедия, 1965) [DVDRip, Не требуется]
  • Суета сует (Алла Сурикова, комедия, 1979) [DVDRip, Не требуется]
  • Пропало лето (Ролан Быков, Никита Орлов, комедия, семейный, 1963) [DVDRip, ...
  • Дядюшкин сон (2 части из2) (Александр Орлов, драма, комедия, 1981) [DVDRip, ...
  • Александр Попов (Виктор Эйсымонт, Герберт Раппапорт, драма, биография, 1949 ...
  • Котовский (Александр Файнциммер, военный, биография, история, 1942) [DVDRip ...
  • Информация
    Посетители, находящиеся в группе Гости, не могут оставлять комментарии к данной публикации.