вход на сайт

Имя пользователя :
Пароль :

Восстановление пароля Регистрация
Спортлото-82 (Леонид Гайдай, комедия, приключения, 1982) [DVDRip, Не требуется]
Рейтинг:
(голосов: 1)



[img]{THEME}/images/logopost.png[/img]



Спортлото-82

Год выпуска: 1982
Страна: СССР
Производство: Мосфильм
Жанр: комедия, приключения

Режиссёр: Леонид Гайдай
В ролях: Альгис Арлаускас, Светлана Аманова, Михаил Пуговкин, Михаил Кокшенов, Денис Кмит, Нина Гребешкова, Андрей Толшин, Борислав Брондуков, Луиза Мосендз, Сергей Филиппов

Перевод: Не требуется
Субтитры: Отсутствуют

Описание:
На один из билетов «Спортлото» выпадает крупный выигрыш. Однако билет оказывается потерянным. В поисках его герои попадают во множество занятных переделок, над которыми зритель веселится от души…


Дополнительно:
MediaInfo ▼Text
Общее
Полное имя :L:3.РаздачаСпортлото-82Sportloto.82.1982.avi
Формат :AVI
Размер :1.37 GiB
Продолжительность :01:29:07.920
Общий поток :2 194 Kbps
Программа кодирования :VirtualDubMod 1.5.4.1 (build 2178/release)
Библиотека кодирования :VirtualDubMod build 2178/release

Видео
Идентификатор :0
Формат :MPEG-4 Visual
Профиль формата :Advanced [email protected]
Параметр BVOP формата :1
Параметр Qpel формата :No
Параметр GMC формата :0
Параметр Matrix формата :Custom
Идентификатор кодека :XVID
Продолжительность :1h 29mn 7s 920ms
Битрейт :2 009 Kbps
Ширина :720 pixels
Высота :416 pixels
Соотношение сторон :1.731
Частота кадров :25.000 fps
Глубина цвета :8 bits
Подвыборка цветности :4:2:0
Цветовое пространство :YUV
Тип развертки :Progressive
Бит/(Пиксели*Кадры) :0.268
Размер потока :1.25 GiB (92%)
Библиотека кодирования :XviD0047

Аудио #1
Идентификатор :1
Формат :MPEG Audio
Идентификатор кодека :55
Продолжительность :01:29:07.920
Вид битрейта :Variable
Битрейт :173 Kbps
Канал(ы) :2 channels
Частота :48.0 KHz
Метод сжатия :Lossy
Размер потока :110 MiB (8%)
Язык :RussianТех. данные:
Качество:DVDRip
Продолжительность:01:29:00 час

Формат: AVI
Видео кодек: XviD
Аудио кодек: &
f362a7c56e8013e5ed7bb241a005c4f8cdab3b05Спортлото-82 (Леонид Гайдай, комедия, приключения, 1982) [DVDRip, Не требуется] Спортлото-82 (Леонид Гайдай, комедия, приключения, 1982) [DVDRip, Не требуется] " />

Аплоадер: Админ, дата: 14-12-2012, 22:26, торрент скачан: 359 раз

Понравилась раздача? Посмотрите эти:
  • Каштанка (Роман Балаян, приключения, 1975) [DVDRip, Не требуется]
  • Хозяин тайги (Владимир Назаров, криминал, 1968) [DVDRip, Не требуется]
  • Покровские ворота (2 части из 2) (Михаил Козаков, мюзикл, драма, мелодрама, ...
  • Далеко от Москвы (Александр Столпер, драма, 1950) [DVDRip, Не требуется]
  • Дом, который построил Свифт (2 части из 2) (Марк Захаров, фэнтези, триллер, ...
  • Ослиная шкура (Надежда Кошеверова, фэнтези, мелодрама, комедия, семейный, 1 ...
  • Опасно для жизни! (Леонид Гайдай, комедия, 1985) [DVDRip, Не требуется]
  • Левша (Сергей Овчаров, драма, комедия, 1986) [DVDRip, Не требуется]
  • Не может быть! (Леонид Гайдай, мюзикл, мелодрама, комедия, 1975) [DVDRip-AV ...
  • Пиковая дама (Игорь Масленников, драма, 1982) [DVDRip, Не требуется]
  • Пес Барбос и необычный кросс / Самогонщики / «Сто грамм» для храбрости (Лео ...
  • Печники (Виктор Храмов, драма, 1982) [DVDRip, Не требуется]
  • Небывальщина (Сергей Овчаров, комедия, 1983) [DVDRip, Не требуется]
  • Карусель (Михаил Швейцер, комедия, 1970) [DVDRip, Не требуется]
  • Трест, который лопнул (3 части из 3) (Александр Павловский, мюзикл, комедия ...
  • Совершенно серьезно (Леонид Гайдай, Эльдар Рязанов, Владимир Семаков, коме ...
  • Суета сует (Алла Сурикова, комедия, 1979) [DVDRip, Не требуется]
  • Приключения маленького папы (Дмитрий Крупко, детский, комедия, 1979) [DVDRi ...
  • Проданный смех (2 части из 2) (Леонид Нечаев, мюзикл, фэнтези, приключения, ...
  • Деловые люди (полная реставрация) (Леонид Гайдай, комедия, драма, 1962) [DV ...
  • Спортлото - 82 (Леонид Гайдай, комедия, приключения, 1983) [DVDRip, Не треб ...
  • Хозяйка гостиницы (Михаил Названов, комедия, 1956) [DVDRip, Не требуется]
  • Живите в радости (Леонид Миллионщиков, комедия, 1978) [DVDRip, Не требуется ...
  • Демидовы (2 части из 2) (Ярополк Лапшин, драма, биография, 1982) [DVDRip, Н ...
  • Жених с того света (Леонид Гайдай, комедия, 1982) [DVDRip-AVC, Не требуется ...
  • Информация
    Посетители, находящиеся в группе Гости, не могут оставлять комментарии к данной публикации.