вход на сайт

Имя пользователя :
Пароль :

Восстановление пароля Регистрация
Сотрудник ЧК (Борис Волчек, боевик, история, 1963) [DVDRip, Не требуется]
Рейтинг:
(голосов: 1)



[img]{THEME}/images/logopost.png[/img]



Сотрудник ЧК

Год выпуска: 1963
Страна: СССР
Производство: Мосфильм, ТО «Юность»
Жанр: боевик, история

Режиссёр: Борис Волчек
В ролях: Александр Демьяненко, Евгений Евстигнеев, Владимир Кенигсон, Валентина Малявина, Олег Ефремов, Владимир Заманский, Светлана Данильченко, Дмитрий Масанов, Леонид Пархоменко, В. Мухарьямов

Перевод: Не требуется
Субтитры: Отсутствуют

Описание:
По мотивам одноименной повести А. Лукина и Д. Поляновского. Фильм рассказывает о подвигах чекистов в годы гражданской войны.


Дополнительно:
MediaInfo ▼Text
Общее
Полное имя :L:3.РаздачаСотрудник ЧКsotrudnik ChK.avi
Формат :AVI
Размер :1.37 GiB
Продолжительность :01:36:43.800
Общий поток :2 023 Kbps
Программа кодирования :VirtualDubModRus 1.5.10.2 (build 2542/release)
Библиотека кодирования :VirtualDubMod build 2542/release

Видео
Идентификатор :0
Формат :MPEG-4 Visual
Параметр BVOP формата :1
Параметр Qpel формата :No
Параметр GMC формата :0
Параметр Matrix формата :Default (H.263)
Идентификатор кодека :DX50
Продолжительность :1h 36mn 43s 800ms
Битрейт :1 821 Kbps
Ширина :704 pixels
Высота :528 pixels
Соотношение сторон :1.333
Частота кадров :25.000 fps
Глубина цвета :8 bits
Подвыборка цветности :4:2:0
Цветовое пространство :YUV
Тип развертки :Progressive
Бит/(Пиксели*Кадры) :0.196
Размер потока :1.23 GiB (90%)
Библиотека кодирования :DivX503b2676p

Аудио #1
Идентификатор :1
Формат :AC-3
Формат/Информация :Audio Coding 3
Идентификатор кодека :2000
Продолжительность :01:36:43.328
Вид битрейта :Constant
Битрейт :192 Kbps
Канал(ы) :2 channels
Расположение каналов :Front: L R
Частота :48.0 KHz
Битовая глубина :16 bits
Метод сжатия :Lossy
Размер потока :133 MiB (9%)Тех. данные:
Качество:DVDRip
Продолжительность:01:36:40 час

Формат: AVI
Видео кодек: DivX
Аудио кодек: &nbs
4a6a6fd44a829bb4c98e696436d75c84ee3ad4a8Сотрудник ЧК (Борис Волчек, боевик, история, 1963) [DVDRip, Не требуется] Сотрудник ЧК (Борис Волчек, боевик, история, 1963) [DVDRip, Не требуется] " />

Аплоадер: Админ, дата: 14-12-2012, 22:23, торрент скачан: 359 раз

Понравилась раздача? Посмотрите эти:
  • Борец и клоун (Борис Барнет, Константин Юдин, драма, спорт, 1957) [DVDRip, ...
  • Дорога (Александр Столпер, боевик, 1955) [DVDRip, Не требуется]
  • Штрафной удар (Вениамин Дорман, комедия, спорт, 1963) [DVDRip, Не требуется ...
  • Пакет (Владимир Назаров, комедия, приключения, семейный, 1965) [DVDRip, Не ...
  • Обыкновенная история (2 части из 2) (Галина Волчек, фильм-спектакль, драма, ...
  • Оптимистическая трагедия (Самсон Самсонов, драма, военный, история, 1963) [ ...
  • На графских развалинах (Владимир Скуйбин, приключения, семейный, 1957) [DVD ...
  • Порожний рейс (Владимир Венгеров, драма, 1962) [DVDRip, Не требуется]
  • Ты и я (Лариса Шепитько, драма, 1971) [DVDRip, Не требуется]
  • Чайка (Юлий Карасик, драма, 1972) [DVDRip, Не требуется]
  • Степь (2 части из 2) (Сергей Бондарчук, драма, история, 1977) [DVDRip, Не т ...
  • Холодное лето пятьдесят третьего (Александр Прошкин, боевик, драма, кримина ...
  • Славный малый (Борис Барнет, военный, 1943) [DVDRip, Не требуется]
  • Путь к причалу (Георгий Данелия, драма, 1963) [DVDRip, Не требуется]
  • Полустанок (Борис Барнет, мелодрама, комедия, 1963) [DVDRip, Не требуется]
  • Хозяин и слуга (Дмитрий Кесаянц, короткометражка, комедия, 1963) [DVDRip, Н ...
  • Донская повесть (Владимир Фетин, драма, 1964) [DVDRip, Не требуется]
  • Чудак-человек (Владимир Кочетов, комедия, 1962) [DVDRip, Не требуется]
  • Голубая стрела (Леонид Эстрин, боевик, 1958) [DVDRip, Не требуется]
  • Мексиканец (Владимир Каплуновский, драма, 1955) [DVDRip, Не требуется]
  • Информация
    Посетители, находящиеся в группе Гости, не могут оставлять комментарии к данной публикации.