вход на сайт

Имя пользователя :
Пароль :

Восстановление пароля Регистрация
Совершенно серьезно (Леонид Гайдай, Эльдар Рязанов, Владимир Семаков, комедия, 1961) [DVDRip, Не требуется]
Рейтинг:
(голосов: 1)



[img]{THEME}/images/logopost.png[/img]



Совершенно серьезно

Год выпуска: 1961
Страна: СССР
Производство: Мосфильм
Жанр: комедия

Режиссёр: Леонид Гайдай, Эльдар Рязанов, Владимир Семаков
В ролях: Анатолий Папанов, Сергей Филиппов, Серафим Аникеев, Александр Белявский, Владимир Кулик, Евгений Моргунов, Юрий Никулин, Георгий Вицин, Ростислав Плятт, Мария Миронова

Перевод: Не требуется
Субтитры: Отсутствуют

Описание:
Сергей Филиппов проведет нас по коридорам киностудии, где снимается комедийный альманах. Там творится полный кавардак, но неменьше его в новеллах альманаха: новелла "Как создавался Робинзон", новелла "История с пирожками", новелла "Иностранцы", новелла "Приятного аппетита".


Дополнительно:
MediaInfo ▼Text
Общее
Полное имя :L:3.РаздачаСовершенно серьезноsovershenno_serezno.avi
Формат :AVI
Размер :1.18 GiB
Продолжительность :00:53:55.040
Общий поток :3 146 Kbps
Библиотека кодирования :VirtualDub build 30009/release

Видео
Идентификатор :0
Формат :MPEG-4 Visual
Профиль формата :Advanced [email protected]
Параметр BVOP формата :2
Параметр Qpel формата :No
Параметр GMC формата :0
Параметр Matrix формата :Default (MPEG)
Идентификатор кодека :XVID
Продолжительность :53mn 55s 40ms
Битрейт :2 913 Kbps
Ширина :688 pixels
Высота :568 pixels
Соотношение сторон :1.211
Частота кадров :25.000 fps
Глубина цвета :8 bits
Подвыборка цветности :4:2:0
Цветовое пространство :YUV
Тип развертки :Progressive
Бит/(Пиксели*Кадры) :0.298
Размер потока :1.10 GiB (93%)
Библиотека кодирования :XviD0037

Аудио #1
Идентификатор :1
Формат :AC-3
Формат/Информация :Audio Coding 3
Идентификатор кодека :2000
Продолжительность :00:53:53.920
Вид битрейта :Constant
Битрейт :224 Kbps
Канал(ы) :2 channels
Расположение каналов :Front: L R
Частота :48.0 KHz
Битовая глубина :16 bits
Метод сжатия :Lossy
Размер потока :86.4 MiB (7%)



 
ac057cb83ff1a345e31d9c0cec7a0d5e44fa9d66Совершенно серьезно (Леонид Гайдай, Эльдар Рязанов, Владимир Семаков, комедия, 1961) [DVDRip, Не требуется] Совершенно серьезно (Леонид Гайдай, Эльдар Рязанов, Владимир Семаков, комедия, 1961) [DVDRip, Не требуется] " />

Аплоадер: Админ, дата: 14-12-2012, 22:13, торрент скачан: 359 раз

Понравилась раздача? Посмотрите эти:
  • Карнавальная ночь (Эльдар Рязанов, мюзикл, мелодрама, комедия, 1956) [BDRip ...
  • Пес Барбос и необычный кросс. Самогонщики (Леонид Гайдай, короткометражка, ...
  • Гараж (Эльдар Рязанов, драма, комедия, 1979) [HDTV 1080i, Не требуется, Суб ...
  • Самогонщики / Пес Барбос и необычный кросс / «Сто грамм» для храбрости (Лео ...
  • Пес Барбос и необычный кросс / Самогонщики / «Сто грамм» для храбрости (Лео ...
  • Девушка без адреса (Эльдар Рязанов, мелодрама, комедия, 1957) [DVDRip, Не т ...
  • Зигзаг удачи (Эльдар Рязанов, комедия, 1968) [DVDRip, Не требуется]
  • Опасно для жизни! (Леонид Гайдай, комедия, 1985) [DVDRip, Не требуется]
  • Левша (Сергей Овчаров, драма, комедия, 1986) [DVDRip, Не требуется]
  • Старики-разбойники (Эльдар Рязанов, комедия, 1971) [DVDRip]
  • Самогонщики, Пёс барбос и необычный кросс (Л. Гайдай,1961)
  • Гараж ( Эльдар Рязанов , Комедия, Драма, 1979) [DVDRip-AVC, не требуется]
  • Служебный роман (Эльдар Рязанов, мелодрама, комедия, 1977) [BDRip - AVC, Не ...
  • Карнавальная ночь (Эльдар Рязанов, мюзикл, мелодрама, комедия, 1956) [DVDRi ...
  • Дайте жалобную книгу (Эльдар Рязанов, комедия, 1965) [DVDRip-AVC, Не требуе ...
  • Небеса обетованные (Эльдар Рязанов, драма, комедия, 1991) [DVDRip-AVC, Не т ...
  • Пес Барбос и необычный кросс / Самогонщики / «Сто грамм» для храбрости (Лео ...
  • Служебный роман (Эльдар Рязанов, мелодрама, комедия, 1977) [BDRip 720p, не ...
  • Спортлото-82 (Леонид Гайдай, комедия, приключения, 1982) [DVDRip, Не требуе ...
  • Старики-разбойники (Эльдар Рязанов, комедия, 1971) [DVDRip, Не требуется]
  • Человек ниоткуда (Эльдар Рязанов, Комедия, 1961) [DVDrip, Оригинал]
  • Самогонщики, Пёс барбос и необычный кросс (Леонид Гайдай , Комедия, 1961) [ ...
  • Деловые люди (полная реставрация) (Леонид Гайдай, комедия, драма, 1962) [DV ...
  • Живите в радости (Леонид Миллионщиков, комедия, 1978) [DVDRip, Не требуется ...
  • Жених с того света (Леонид Гайдай, комедия, 1982) [DVDRip-AVC, Не требуется ...
  • Информация
    Посетители, находящиеся в группе Гости, не могут оставлять комментарии к данной публикации.