вход на сайт

Имя пользователя :
Пароль :

Восстановление пароля Регистрация
Тень (Реставрация) (Надежда Кошеверова, фэнтези, драма, мелодрама, комедия, 1971) [DVDRip, Не требуется ]
Рейтинг:
(голосов: 1)



[img]{THEME}/images/logopost.png[/img]



Тень

Год выпуска: 1971
Страна: СССР
Производство: Ленфильм
Жанр: фэнтези, драма, мелодрама, комедия

Режиссёр: Надежда Кошеверова
В ролях: Олег Даль, Владимир Этуш, Сергей Филиппов, Зиновий Гердт, Людмила Гурченко, Андрей Миронов, Марина Неёлова, Анастасия Вертинская, Георгий Вицин, Светлана Мазовецкая

Перевод: Не требуется
Субтитры: Отсутствуют

Описание:
Cмешная и мудрая история о борьбе умного и доброго Ученого с его темной ипостасью — Тенью. Победу в этой борьбе не может одержать ни Светлое, ни Темное, отчего история становится лишь более правдивой и жизненной.


Дополнительно:
MediaInfo ▼Text
Общее
Полное имя :J:1. РАЗДАЧАТеньТень.1971.XviD.DVDRip.avi
Формат :AVI
Размер :1.37 GiB
Продолжительность :01:26:13.840
Общий поток :2 270 Kbps
Программа кодирования :VirtualDubMod 1.5.10.3 | www.virtualdub-fr.org || (build 2550/release)

Видео
Идентификатор :0
Формат :MPEG-4 Visual
Профиль формата :Advanced [email protected]
Параметр BVOP формата :3
Параметр Qpel формата :No
Параметр GMC формата :0
Параметр Matrix формата :Default (MPEG)
Идентификатор кодека :XVID
Продолжительность :1h 26mn 13s 840ms
Битрейт :1 812 Kbps
Ширина :720 pixels
Высота :344 pixels
Соотношение сторон :2.093
Частота кадров :25.000 fps
Глубина цвета :8 bits
Подвыборка цветности :4:2:0
Цветовое пространство :YUV
Тип развертки :Progressive
Бит/(Пиксели*Кадры) :0.293
Размер потока :1.09 GiB (80%)
Библиотека кодирования :XviD0064

Аудио #1
Идентификатор :1
Формат :AC-3
Формат/Информация :Audio Coding 3
Идентификатор кодека :2000
Продолжительность :01:26:13.810
Вид битрейта :Constant
Битрейт :448 Kbps
Канал(ы) :6 channels
Расположение каналов :Front: L C R, Side: L R, LFE
Частота :48.0 KHz
Битовая глубина :16 bits
Метод сжатия :Lossy
Размер потока :276 MiB (20%)Тех. данные:
Качество:DVDRip
Продолжительность:&nbs
38667413240a7f35d4433e4844187de0b99f67d5Тень (Реставрация) (Надежда Кошеверова, фэнтези, драма, мелодрама, комедия, 1971) [DVDRip, Не требуется ] Тень (Реставрация) (Надежда Кошеверова, фэнтези, драма, мелодрама, комедия, 1971) [DVDRip, Не требуется ] " />

Аплоадер: Админ, дата: 13-12-2012, 19:24, торрент скачан: 359 раз

Понравилась раздача? Посмотрите эти:
  • Алые паруса (Александр Птушко, фэнтези, драма, мелодрама, 1961) [DVDRip, Не ...
  • Медовый месяц (Надежда Кошеверова, мелодрама, комедия, 1956) [DVDRip, Не тр ...
  • Достояние республики (2 части из 2) (Владимир Бычков, Студия Горького, 1971 ...
  • Даурия (2 части из 2) (Виктор Трегубович, боевик, драма, мелодрама, приключ ...
  • Дама с собачкой (Иосиф Хейфиц, драма, мелодрама, 1959) [DVDRip, Не требуетс ...
  • Полонез Огинского (Лев Голуб, драма, военный, 1971) [DVDRip, Не требуется]
  • Город мастеров (Владимир Бычков, фэнтези, приключения, семейный, история, 1 ...
  • Вся королевская рать (3 части из 3) (Наум Ардашников, Александр Гуткович, д ...
  • И вот пришел Бумбо... (Надежда Кошеверова, В. Апананский, Н. Окунцова, семе ...
  • Иван да Марья (Борис Рыцарев, фэнтези, мелодрама, комедия, семейный, музыка ...
  • Ослиная шкура (Надежда Кошеверова, фэнтези, мелодрама, комедия, семейный, 1 ...
  • Осенний марафон (Георгий Данелия, драма, мелодрама, комедия, 1979) [DVDRip, ...
  • Царевич Проша (Надежда Кошеверова, фэнтези, семейный, 1947) [DVDRip, Не тре ...
  • Первая перчатка (Андрей Фролов, мюзикл, мелодрама, комедия, спорт, 1946) [D ...
  • Ты и я (Лариса Шепитько, драма, 1971) [DVDRip, Не требуется]
  • Дядя Ваня (Андрей Кончаловский, драма, 1971) [DVDRip, Не требуется]
  • Как Иванушка-дурачок за чудом ходил (Надежда Кошеверова, фэнтези, семейный, ...
  • Сегодня – новый аттракцион (Надежда Кошеверова, Аполлинарий Дудко, комедия, ...
  • Старая, старая сказка (Надежда Кошеверова, фэнтези, семейный, 1968) [DVDRip ...
  • Соловей (Надежда Кошеверова, мюзикл, семейный, 1979) [DVDRip, Не требуется] ...
  • Шельменко-денщик (Андрей Тутышкин, мюзикл, комедия, 1971) [DVDRip, Не требу ...
  • Тень (Надежда Кошеверова, Фэнтези, драма, мелодрама, комедия, 1971) [DVDRip ...
  • Деловые люди (полная реставрация) (Леонид Гайдай, комедия, драма, 1962) [DV ...
  • Шофер поневоле (Надежда Кошеверова, комедия, 1958) [DVDRip, Не требуется]
  • Каин XVIII (Надежда Кошеверова, Михаил Шапиро, фэнтези, мелодрама, приключе ...
  • Информация
    Посетители, находящиеся в группе Гости, не могут оставлять комментарии к данной публикации.