вход на сайт

Имя пользователя :
Пароль :

Восстановление пароля Регистрация
Танкер «Дербент» (Александр Файнциммер, приключения, 1940) [DVDRip, Не требуется]
Рейтинг:
(голосов: 1)



[img]{THEME}/images/logopost.png[/img]



Танкер «Дербент»

Год выпуска: 1940
Страна: СССР
Производство: Одесская кино-студия художественных фильмов
Жанр: приключения

Режиссёр: Александр Файнциммер
В ролях: Алексей Краснопольский, Анатолий Горюнов, Константин Михайлов, Василий Меркурьев, Петр Кириллов, Иван Кузнецов, Константин Сорокин, Эммануил Геллер, Лидия Сухаревская, Ефим Копелян

Перевод: Не требуется
Субтитры: Отсутствуют

Описание:
Однажды ночью экипаж танкера «Дербент» получает сигнал о загорании нефти на танкере «Агамали». Несмотря на пожар, грозящий перекинуться на судно, «Дербент» спешит на помощь…


Дополнительно:
MediaInfo ▼Text
Общее
Полное имя :L:3.РаздачаТанкер «Дербент»Tanker.Derbent.1941.avi
Формат :AVI
Размер :1.37 GiB
Продолжительность :01:23:25.880
Общий поток :2 347 Kbps
Программа кодирования :VirtualDubMod 1.5.4.1 (build 2178/release)
Библиотека кодирования :VirtualDubMod build 2178/release

Видео
Идентификатор :0
Формат :MPEG-4 Visual
Профиль формата :Advanced [email protected]
Параметр BVOP формата :1
Параметр Qpel формата :No
Параметр GMC формата :0
Параметр Matrix формата :Custom
Идентификатор кодека :XVID
Продолжительность :1h 23mn 25s 880ms
Битрейт :2 148 Kbps
Ширина :720 pixels
Высота :544 pixels
Соотношение сторон :1.324
Частота кадров :25.000 fps
Глубина цвета :8 bits
Подвыборка цветности :4:2:0
Цветовое пространство :YUV
Тип развертки :Progressive
Бит/(Пиксели*Кадры) :0.219
Размер потока :1.25 GiB (92%)
Библиотека кодирования :XviD0047

Аудио #1
Идентификатор :1
Формат :AC-3
Формат/Информация :Audio Coding 3
Идентификатор кодека :2000
Продолжительность :01:23:25.880
Вид битрейта :Constant
Битрейт :192 Kbps
Канал(ы) :2 channels
Расположение каналов :Front: L R
Частота :48.0 KHz
Битовая глубина :16 bits
Метод сжатия :Lossy
Размер потока :115 MiB (8%)Т
04732df0c0a12890af8a874e9f3e2f5e603422eaТанкер «Дербент» (Александр Файнциммер, приключения, 1940) [DVDRip, Не требуется] Танкер «Дербент» (Александр Файнциммер, приключения, 1940) [DVDRip, Не требуется] " />

Аплоадер: Админ, дата: 13-12-2012, 19:19, торрент скачан: 359 раз

Понравилась раздача? Посмотрите эти:
  • Каштанка (Роман Балаян, приключения, 1975) [DVDRip, Не требуется]
  • Два гусара (Вячеслав Криштофович, мелодрама, 1984) [DVDRip, Не требуется]
  • Старшина (Николай Кошелев, драма, 1979) [DVDRip, Не требуется]
  • Освобождение (Александр Довженко, Юлия Солнцева, документальный, 1940) [DVD ...
  • Ой, вы, гуси... (Лидия Боброва, Драма, 1991) [DVDRip, Не требуется]
  • Моя любовь (Владимир Корш-Саблин, мюзикл, мелодрама, комедия, 1940) [DVDRip ...
  • Левша (Сергей Овчаров, драма, комедия, 1986) [DVDRip, Не требуется]
  • Князь Игорь (Роман Тихомиров, мюзикл, приключения, 1969) [DVDRip, Не требуе ...
  • Черная чайка (Григорий Колтунов, приключения, 1962) [DVDRip, Не требуется]
  • Трактир на Пятницкой (Александр Файнциммер, криминал, детектив, 1977) [DVDR ...
  • Дача (Константин Воинов, комедия, 1974) [DVDRip, Не требуется]
  • Небывальщина (Сергей Овчаров, комедия, 1983) [DVDRip, Не требуется]
  • Трест, который лопнул (3 части из 3) (Александр Павловский, мюзикл, комедия ...
  • Спящий лев (Александр Файнциммер, комедия, 1965) [DVDRip, Не требуется]
  • Путь корабля (Юрий Тарич, драма, приключения, 1935) [DVDRip, Не требуется]
  • Приключения маленького папы (Дмитрий Крупко, детский, комедия, 1979) [DVDRi ...
  • Хозяйка гостиницы (Михаил Названов, комедия, 1956) [DVDRip, Не требуется]
  • Драгоценный подарок (Александр Роу, семейный, 1956) [DVDRip, Не требуется]
  • Белый клык (Александр Згуриди, приключения, 1947) [DVDRip, Не требуется]
  • Гибель «Орла» (Василий Журавлев, приключения, 1940) [DVDRip, Не требуется]
  • Золотая речка (Вениамин Дорман, приключения, 1977) [DVDRip, Не требуется]
  • Дом на дюнах (Дмитрий Салынский, приключения, 1984) [DVDRip, Не требуется]
  • Суворов (Михаил Доллер, Всеволод Пудовкин, драма, военный, биография, истор ...
  • Максимка (Владимир Браун, приключения, 1953) [DVDRip, Не требуется]
  • Котовский (Александр Файнциммер, военный, биография, история, 1942) [DVDRip ...
  • Информация
    Посетители, находящиеся в группе Гости, не могут оставлять комментарии к данной публикации.