вход на сайт

Имя пользователя :
Пароль :

Восстановление пароля Регистрация
Таинственный остров (Эдуард Пенцлин, фантастика, приключения, семейный, 1941) [DVDRip, Не требуется]
Рейтинг:
(голосов: 1)



[img]{THEME}/images/logopost.png[/img]



Таинственный остров

Год выпуска: 1941
Страна: СССР
Производство: Студия Горького
Жанр: фантастика, приключения, семейный

Режиссёр: Эдуард Пенцлин
В ролях: Алексей Краснопольский, Павел Киянский, Андрей Андриенко-Земсков, И. Козлов, Роберт Росс, Юрий Грамматикати, Андрей Сова, Николай Комиссаров

Перевод: Не требуется
Субтитры: Отсутствуют

Описание:
Во время Гражданской войны в Америке пятеро пленных бегут из осажденного Ри*censored*нда на воздушном шаре. Ураган уносит их на необитаемый остров. Тысячи миль отделяют колонистов от обитаемой земли, а все их имущество — нож, часы и записная книжка…


Дополнительно:
MediaInfo ▼Text
Общее
Полное имя :L:3.РаздачаТаинственный островTainstvenniy_ostrov.avi
Формат :AVI
Размер :1.37 GiB
Продолжительность :01:27:56.800
Общий поток :2 225 Kbps
Программа кодирования :VirtualDubModRus 1.5.10.2 (build 2542/release)
Библиотека кодирования :VirtualDubMod build 2542/release

Видео
Идентификатор :0
Формат :MPEG-4 Visual
Параметр BVOP формата :1
Параметр Qpel формата :No
Параметр GMC формата :0
Параметр Matrix формата :Default (H.263)
Идентификатор кодека :DX50
Продолжительность :1h 27mn 56s 800ms
Битрейт :1 959 Kbps
Ширина :704 pixels
Высота :528 pixels
Соотношение сторон :1.333
Частота кадров :25.000 fps
Глубина цвета :8 bits
Подвыборка цветности :4:2:0
Цветовое пространство :YUV
Тип развертки :Progressive
Бит/(Пиксели*Кадры) :0.211
Размер потока :1.20 GiB (88%)
Библиотека кодирования :DivX503b2676p

Аудио #1
Идентификатор :1
Формат :AC-3
Формат/Информация :Audio Coding 3
Идентификатор кодека :2000
Продолжительность :01:27:56.800
Вид битрейта :Constant
Битрейт :256 Kbps
Канал(ы) :2 channels
Расположение каналов :Front: L R
Частота :48.0 KHz
Битовая глубина :16 bits
Метод сжатия :Lossy
Размер потока :161 MiB (12%)Тех. данные:
Качество:DV
1950433bdb060aa0b3c2d03c0f4d5b01e9f35806Таинственный остров (Эдуард Пенцлин, фантастика, приключения, семейный, 1941) [DVDRip, Не требуется] Таинственный остров (Эдуард Пенцлин, фантастика, приключения, семейный, 1941) [DVDRip, Не требуется] " />

Аплоадер: Админ, дата: 13-12-2012, 18:37, торрент скачан: 359 раз

Понравилась раздача? Посмотрите эти:
  • Зеленые цепочки (Григорий Аронов, приключения, 1970) [DVDRip, Не требуется] ...
  • Шанс (Александр Майоров, фантастика, фэнтези, мелодрама, комедия, приключен ...
  • Тайна железной двери (Михаил Юзовский, фантастика, приключения, семейный, 1 ...
  • Приключения Толи Клюквина (Виктор Эйсымонт, комедия, семейный, 1964) [DVDRi ...
  • Ох, уж эта Настя! (Юрий Победоносцев, семейный, 1972) [DVDRip, Не требуется ...
  • Пакет (Владимир Назаров, комедия, приключения, семейный, 1965) [DVDRip, Не ...
  • Гиперболоид инженера Гарина (Александр Гинцбург, фантастика, 1965) [DVDRip, ...
  • На графских развалинах (Владимир Скуйбин, приключения, семейный, 1957) [DVD ...
  • Мама (Элизабета Бостан, мюзикл, фэнтези, семейный, 1976) [DVDRip, Не требуе ...
  • Комиссар (Александр Аскольдов, драма, военный, 1967) [DVDRip, Не требуется] ...
  • Шелковица / Молодость. Выпуск 2 (Геннадий Мелконян, Андрей Ермаш, Автандил ...
  • Как Иванушка-дурачок за чудом ходил (Надежда Кошеверова, фэнтези, семейный, ...
  • Танкер «Дербент» (Александр Файнциммер, приключения, 1940) [DVDRip, Не треб ...
  • При исполнении служебных обязанностей (Илья Гурин, фантастика, драма, 1963) ...
  • Садко (Александр Птушко, фэнтези, приключения, 1952) [DVDRip, Не требуется] ...
  • Пока бьют часы (Геннадий Васильев, фэнтези, семейный, 1976) [DVDRip, Не тре ...
  • Таинственный остров / Остров приключений / Mysterious Island (Сай Эндфилд, ...
  • Остров сокровищ / Treasure Island (Байрон Хэскин, приключения, семейный, 19 ...
  • Большой «Фитиль» (Мери Анджапаридзе, Эдуард Бочаров, Софья Милькина, комеди ...
  • Драгоценный подарок (Александр Роу, семейный, 1956) [DVDRip, Не требуется]
  • Голубая стрела (Леонид Эстрин, боевик, 1958) [DVDRip, Не требуется]
  • Дом на дюнах (Дмитрий Салынский, приключения, 1984) [DVDRip, Не требуется]
  • Истребители (Эдуард Пенцлин, приключения, 1939) [DVDRip, Не требуется]
  • Вера, надежда, любовь (Владимир Грамматиков, приключения, 1984) [DVDRip, Не ...
  • Зверобой (2 части из 2) (Андрей Ростоцкий, приключения, 1990) [DVDRip, Не т ...
  • Информация
    Посетители, находящиеся в группе Гости, не могут оставлять комментарии к данной публикации.