вход на сайт

Имя пользователя :
Пароль :

Восстановление пароля Регистрация
Табачный капитан (Игорь Усов, мюзикл, комедия, история, 1972) [DVDRip, Не требуется]
Рейтинг:
(голосов: 1)



[img]{THEME}/images/logopost.png[/img]



Табачный капитан

Год выпуска: 1972
Страна: СССР
Производство: Ленфильм
Жанр: мюзикл, комедия, история

Режиссёр: Игорь Усов
В ролях: Владлен Давыдов, Наталья Фатеева, Николай Трофимов, Сергей Филиппов, Людмила Гурченко, Георгий Вицин, Евгений Шапин, Виктор Кривонос, Елена Андерегг, Андрей Баранов

Перевод: Не требуется
Субтитры: Отсутствуют

Описание:
Музыкальная историческая комедия из эпохи Петра I. Нерадивого боярского сына царь посылает в Голландию учиться морскому делу. Но в науках преуспевает не знатный недоросль, а его крепостной холоп. Он-то и становится офицером по возвращении в Россию.


Дополнительно:
MediaInfo ▼Text
Общее
Полное имя :D:. РАЗДАЧАТабачный капитанTabachniy_kapitan.avi
Формат :AVI
Размер :1.37 GiB
Продолжительность :01:21:12.520
Общий поток :2 409 Kbps
Программа кодирования :VirtualDubModRus 1.5.10.2 (build 2542/release)
Библиотека кодирования :VirtualDubMod build 2542/release

Видео
Идентификатор :0
Формат :MPEG-4 Visual
Параметр BVOP формата :1
Параметр Qpel формата :No
Параметр GMC формата :0
Параметр Matrix формата :Default (H.263)
Идентификатор кодека :DX50
Продолжительность :1h 21mn 12s 520ms
Битрейт :2 207 Kbps
Ширина :720 pixels
Высота :544 pixels
Соотношение сторон :1.324
Частота кадров :25.000 fps
Глубина цвета :8 bits
Подвыборка цветности :4:2:0
Цветовое пространство :YUV
Тип развертки :Progressive
Бит/(Пиксели*Кадры) :0.225
Размер потока :1.25 GiB (92%)
Библиотека кодирования :DivX503b2676p

Аудио #1
Идентификатор :1
Формат :AC-3
Формат/Информация :Audio Coding 3
Идентификатор кодека :2000
Продолжительность :01:21:12.512
Вид битрейта :Constant
Битрейт :192 Kbps
Канал(ы) :2 channels
Расположение каналов :Front: L R
Частота :48.0 KHz
Битовая глубина :16 bits
Метод сжатия :Lossy
Размер потока :112 MiB (8%)Тех. данные:
Качество:DVDRip
587a645523cfd9fb4f8b473f1085bea1ac034988Табачный капитан (Игорь Усов, мюзикл, комедия, история, 1972) [DVDRip, Не требуется] Табачный капитан (Игорь Усов, мюзикл, комедия, история, 1972) [DVDRip, Не требуется] " />

Аплоадер: Админ, дата: 13-12-2012, 18:35, торрент скачан: 359 раз

Понравилась раздача? Посмотрите эти:
  • Дон Сезар де Базан (2 части из 2) (Ян Фрид, мюзикл, комедия, 1989) [DVDRip, ...
  • Бой после победы (2 части из 2) (Виллен Азаров, триллер, военный, 1972) [DV ...
  • По главной улице с оркестром (Петр Тодоровский, мюзикл, мелодрама, комедия, ...
  • Ох, уж эта Настя! (Юрий Победоносцев, семейный, 1972) [DVDRip, Не требуется ...
  • Новогодние приключения Маши и Вити (Геннадий Казанский, Игорь Усов, фэнтези ...
  • Волшебная сила (Наум Бирман, мюзикл, комедия, семейный, 1970) [DVDRip, Не т ...
  • Мама (Элизабета Бостан, мюзикл, фэнтези, семейный, 1976) [DVDRip, Не требуе ...
  • Князь Игорь (Роман Тихомиров, мюзикл, приключения, 1969) [DVDRip, Не требуе ...
  • Сватовство гусара (Светлана Дружинина, мюзикл, мелодрама, комедия, 1979) [D ...
  • Рысь выходит на тропу (Агаси Бабаян, комедия, 1983) [DVDRip, Не требуется]
  • Чайка (Юлий Карасик, драма, 1972) [DVDRip, Не требуется]
  • Чудак из пятого «Б» (Илья Фрэз, комедия, семейный, 1972) [DVDRip, Не требуе ...
  • Трембита (Олег Николаевский, мюзикл, мелодрама, комедия, 1968) [DVDRip, Не ...
  • У матросов нет вопросов (Владимир Роговой, мюзикл, комедия, 1980) [DVDRip, ...
  • Светлая личность (Александр Павловский, мюзикл, комедия, 1989) [DVDRip, Не ...
  • Шельменко-денщик (Андрей Тутышкин, мюзикл, комедия, 1971) [DVDRip, Не требу ...
  • Собака на сене (Реставрирован) (Ян Фрид, мюзикл, комедия, 1977) [DVDRip, Не ...
  • Уходя - уходи (Виктор Трегубович, комедия, 1978) [DVDRip, Не требуется]
  • Ханума (2 части из 2) (Георгий Товстоногов, мюзикл, комедия, 1978) [DVDRip, ...
  • Беспокойное хозяйство (Михаил Жаров, мюзикл, комедия, военный, 1945) [DVDRi ...
  • Информация
    Посетители, находящиеся в группе Гости, не могут оставлять комментарии к данной публикации.