вход на сайт

Имя пользователя :
Пароль :

Восстановление пароля Регистрация
Степь (2 части из 2) (Сергей Бондарчук, драма, история, 1977) [DVDRip, Не требуется]
Рейтинг:
(голосов: 1)



[img]{THEME}/images/logopost.png[/img]



Степь (2 части из 2)

Год выпуска: 1977
Страна: СССР
Производство:Мосфильм
Жанр: драма, история

Режиссёр: Сергей Бондарчук
В ролях: Олег Кузнецов, Николай Трофимов, Владимир Седов, Виктор Мамаев, Сергей Бондарчук, Иван Лапиков Георгий Бурков Анатолий Васильев Михаил Кокшенов Валерий Захарьев

Перевод: Не требуется
Субтитры: Отсутствуют

Описание:
Экранизация одноименной повести А. П. Чехова.


Дополнительно:
MediaInfo ▼Text
"1 часть" ▼Общее
Полное имя :D:. РАЗДАЧАСтепьStep1_Step.avi
Формат :AVI
Размер :805 MiB
Продолжительность :01:12:36.168
Общий поток :1 550 Kbps
Программа кодирования :VirtualDubModRus 1.5.10.2 (build 2542/release)
Библиотека кодирования :VirtualDubMod build 2542/release

Видео
Идентификатор :0
Формат :MPEG-4 Visual
Параметр BVOP формата :1
Параметр Qpel формата :No
Параметр GMC формата :0
Параметр Matrix формата :Default (H.263)
Идентификатор кодека :DX50
Продолжительность :1h 12mn 36s 160ms
Битрейт :1 412 Kbps
Ширина :656 pixels
Высота :496 pixels
Соотношение сторон :1.323
Частота кадров :25.000 fps
Глубина цвета :8 bits
Подвыборка цветности :4:2:0
Цветовое пространство :YUV
Тип развертки :Progressive
Бит/(Пиксели*Кадры) :0.174
Размер потока :733 MiB (91%)
Библиотека кодирования :DivX503b2676p

Аудио #1
Идентификатор :1
Формат :MPEG Audio
Идентификатор кодека :55
Продолжительность :01:12:36.168
Вид битрейта :Constant
Битрейт :128 Kbps
Канал(ы) :2 channels
Частота :48.0 KHz
Метод сжатия :Lossy
Размер потока :66.5 MiB (8%)

"2 часть" ▼Общее
Полное имя :D:. РАЗДАЧАСтепьStep2_Step.avi
Формат :AVI
Размер :595 MiB
Продолжительность :00:53:38.480
Общий поток
a2fbedb0e70e31ca6fbf003b49e6557f1391d885Степь (2 части из 2) (Сергей Бондарчук, драма, история, 1977) [DVDRip, Не требуется] Степь (2 части из 2) (Сергей Бондарчук, драма, история, 1977) [DVDRip, Не требуется] " />[/center]

Аплоадер: Админ, дата: 13-12-2012, 18:14, торрент скачан: 359 раз

Понравилась раздача? Посмотрите эти:
  • Дни хирурга Мишкина (3 части из 3) (Вадим Зобин, драма, 1967) [DVDRip, Не т ...
  • Будни и праздники Серафимы Глюкиной (2 части из 2) (Ростислав Горяев, драма ...
  • Ошибка резидента (2 части из 2) (Вениамин Дорман, детектив, 1968) [DVDRip, ...
  • Судьба резидента (2 части из 2) (Вениамин Дорман, детектив, приключения, 19 ...
  • Возвращение резидента (2 части из 2) (Вениамин Дорман, триллер, 1982) [DVDR ...
  • Мир дому твоему (2 части из 2) (Константин Райкин, Аркадий Райкин, Марк Орл ...
  • Месье Ленуар, который... (2 части из 2) (Александр Орлов, телеспектакль, др ...
  • Люди и манекены (4 части из 4) (Виктор Храмов, Аркадий Райкин, комедия, 197 ...
  • Балтийское небо (2 части из 2) (Владимир Венгеров, драма, военный, история, ...
  • Звезда пленительного счастья (2 части из 2) (Владимир Мотыль, драма, мелодр ...
  • Операция «Трест» (4 части из 4) (Сергей Колосов, приключения, история, 1967 ...
  • Объяснение в любви (2 части из 2) (Илья Авербах, мелодрама, 1977) [DVDRip, ...
  • У меня есть лев (2 части из 2) (Константин Бромберг, драма, комедия, приклю ...
  • Сибириада (4 части из 4) (Андрей Кончаловский, драма, военный, история, 197 ...
  • Ханума (2 части из 2) (Георгий Товстоногов, мюзикл, комедия, 1978) [DVDRip, ...
  • Почти смешная история (2 части из 2) (Петр Фоменко, мелодрама, комедия, 197 ...
  • Председатель (2 части из 2) (Алексей Салтыков, драма, 1964) [DVDRip, Не тре ...
  • Тихий Дон (3 части из 3) (Сергей Герасимов, драма, военный, 1957) [DVDRip, ...
  • Подпольный обком действует (4 части из 4) (Анатолий Буковский, военный, 197 ...
  • В лесах под Ковелем (3 части из 3) (Юрий Тупицкий, военный, история, 1984) ...
  • Гений (2 части из 2) (Виктор Сергеев, Комедия, криминал, 1991) [DVDRip, Не ...
  • Дядюшкин сон (2 части из2) (Александр Орлов, драма, комедия, 1981) [DVDRip, ...
  • Иван Грозный (2 части из 2) (Сергей Эйзенштейн, драма, биография, история, ...
  • Моонзунд (2 части из 2) (Александр Муратов, драма, мелодрама, военный, исто ...
  • Неизвестный солдат (3 части из 3) (Григорий Аронов, Вадим Зобин, драма, 198 ...
  • Информация
    Посетители, находящиеся в группе Гости, не могут оставлять комментарии к данной публикации.