вход на сайт

Имя пользователя :
Пароль :

Восстановление пароля Регистрация
Бабушки надвое сказали (Валерий Харченко, Юрий Клебанов, комедия, 1979) [DVDRip, Не требуется]
Рейтинг:
(голосов: 1)



[img]{THEME}/images/logopost.png[/img]



Бабушки надвое сказали

Год выпуска: 1979
Страна: СССР
Производство: ТО Экран
Жанр: комедия

Режиссёр: Валерий Харченко, Юрий Кл*censored*ов
В ролях: Борис Владимиров, Вадим Тонков, Владимир Басов, Евгений Весник, Николай Рыбников, Олег Анофриев, Наталья Бондарчук, Николай Бурляев, Татьяна Лейбель, Владимир Никольский

Перевод: Не требуется
Субтитры: Отсутствуют

Описание:
О приключениях артистов эстрады Бориса Владимирова и Вадима Тонкова, встретившихся во время гастролей со своими героями, популярными персонажами советской эстрады 70-х — Вероникой Маврикиевной и Авдотьей Никитичной.


Дополнительно:
MediaInfo ▼Text
Общее
Полное имя :D:. РАЗДАЧАБабушки надвое сказалиBabuschki nadvoe skazali.DVDRip.avi
Формат :AVI
Размер :1.09 GiB
Продолжительность :01:16:24.840
Общий поток :2 049 Kbps
Программа кодирования :VirtualDubModRus 1.5.10.2 (build 2542/release)
Библиотека кодирования :VirtualDubMod build 2542/release

Видео
Идентификатор :0
Формат :MPEG-4 Visual
Параметр BVOP формата :1
Параметр Qpel формата :No
Параметр GMC формата :0
Параметр Matrix формата :Default (H.263)
Идентификатор кодека :DX50
Продолжительность :1h 16mn 24s 840ms
Битрейт :1 783 Kbps
Ширина :688 pixels
Высота :512 pixels
Соотношение сторон :1.344
Частота кадров :25.000 fps
Глубина цвета :8 bits
Подвыборка цветности :4:2:0
Цветовое пространство :YUV
Тип развертки :Progressive
Бит/(Пиксели*Кадры) :0.202
Размер потока :975 MiB (87%)
Библиотека кодирования :DivX503b2676p

Аудио #1
Идентификатор :1
Формат :AC-3
Формат/Информация :Audio Coding 3
Идентификатор кодека :2000
Продолжительность :01:16:24.832
Вид битрейта :Constant
Битрейт :256 Kbps
Канал(ы) :2 channels
Расположение каналов :Front: L R
Частота :48.0 KHz
Битовая глубина :16 bits
Метод сжатия :Lossy
Размер потока :140 MiB (12%)Тех. данные:
Качество:DVDRip
Продолжительнос
a4ad50e577c22c411cf7c23a7c5e3363466e779cБабушки надвое сказали (Валерий Харченко, Юрий Клебанов, комедия, 1979) [DVDRip, Не требуется] Бабушки надвое сказали (Валерий Харченко, Юрий Клебанов, комедия, 1979) [DVDRip, Не требуется] " />

Аплоадер: Админ, дата: 12-12-2012, 19:23, торрент скачан: 359 раз

Понравилась раздача? Посмотрите эти:
  • На подмостках сцены (Константин Юдин, драма, комедия, 1956) [DVDRip, Не тре ...
  • История кавалера де Грие и Манон Леско (Роман Виктюк, драма, мелодрама, 197 ...
  • Выйти замуж за капитана (Виталий Мельников, мелодрама, комедия, 1985) [DVDR ...
  • Выстрел (Наум Трахтенберг, драма, 1966) [DVDRip, Не требуется]
  • Старшина (Николай Кошелев, драма, 1979) [DVDRip, Не требуется]
  • Приключения Толи Клюквина (Виктор Эйсымонт, комедия, семейный, 1964) [DVDRi ...
  • Ох, уж эта Настя! (Юрий Победоносцев, семейный, 1972) [DVDRip, Не требуется ...
  • Пакет (Владимир Назаров, комедия, приключения, семейный, 1965) [DVDRip, Не ...
  • Завтрак на траве (Николай Александрович, детский, комедия, 1979) [DVDRip, Н ...
  • Неподсуден (Владимир Краснопольский, Валерий Усков, драма, 1969) [DVDRip, Н ...
  • Фантазеры (Исаак Магитон, И. Сафарова, детский, 1965) [DVDRip, Не требуется ...
  • Сватовство гусара (Светлана Дружинина, мюзикл, мелодрама, комедия, 1979) [D ...
  • Чайка (Юлий Карасик, драма, 1972) [DVDRip, Не требуется]
  • Степь (2 части из 2) (Сергей Бондарчук, драма, история, 1977) [DVDRip, Не т ...
  • Соловей (Надежда Кошеверова, мюзикл, семейный, 1979) [DVDRip, Не требуется] ...
  • Уходя - уходи (Виктор Трегубович, комедия, 1978) [DVDRip, Не требуется]
  • Раннее, раннее утро... (3 части из 3) (Валерий Харченко, семейный, 1983) [T ...
  • Старомодная комедия (Эра Савельева, Татьяна Березанцева, мелодрама, 1978) [ ...
  • Приключения маленького папы (Дмитрий Крупко, детский, комедия, 1979) [DVDRi ...
  • Пока безумствует мечта (Юрий Горковенко, комедия, приключения, 1978) [DVDRi ...
  • Донская повесть (Владимир Фетин, драма, 1964) [DVDRip, Не требуется]
  • Фонтан (Юрий Мамин, комедия, 1989) [DVDRip, Не требуется]
  • Добряки (Карен Шахназаров, комедия, 1979) [DVDRip, Не требуется]
  • К Черному морю (Андрей Тутышкин, мелодрама, комедия, 1957) [DVDRip, Не треб ...
  • За облаками – небо (Юрий Егоров, драма, 1973) [DVDRip, Не требуется]
  • Информация
    Посетители, находящиеся в группе Гости, не могут оставлять комментарии к данной публикации.