вход на сайт

Имя пользователя :
Пароль :

Восстановление пароля Регистрация
Непобедимый (Юрий Борецкий, боевик, 1983) [DVDRip, Не требуется]
Рейтинг:
(голосов: 1)



[img]{THEME}/images/logopost.png[/img]



Непобедимый

Год выпуска: 1983
Страна: СССР
Производство: Студия Горького
Жанр: боевик

Режиссёр: Юрий Борецкий
В ролях: Андрей Ростоцкий, Хамза Умаров, Нурмухан Жантурин, Едгар Сагдиев, Гульнара Дусматова, Биродар Атабаев, Дильшот Измайлов, Николай Карпов, Тухтасын Муратов

Перевод: Не требуется
Субтитры: Отсутствуют

Описание:
Советская Россия 20-х годов. Бывший красноармеец Андрей Хромов, одержимый идеей создания нового вида борьбы — самообороны без оружия, отправляется в Среднюю Азию, чтобы, познакомившись с местными боевыми искусствами, усовершенствовать свое мастерство. Хромов еще не знает, что вскоре оно спасет ему жизнь.


Дополнительно:
MediaInfo ▼Text
Общее
Полное имя :K:2. РАЗДАЧАНепобедимыйNepobedimyy.avi
Формат :AVI
Размер :1.41 GiB
Продолжительность :01:09:06.360
Общий поток :2 926 Kbps
Программа кодирования :VirtualDubModRus 1.5.10.2 (build 2542/release)
Библиотека кодирования :VirtualDubMod build 2542/release

Видео
Идентификатор :0
Формат :MPEG-4 Visual
Профиль формата :Advanced [email protected]
Параметр BVOP формата :2
Параметр Qpel формата :Yes
Параметр GMC формата :3
Параметр Matrix формата :Default (H.263)
Идентификатор кодека :XVID
Продолжительность :1h 9mn 6s 360ms
Битрейт :2 788 Kbps
Ширина :736 pixels
Высота :360 pixels
Соотношение сторон :2.044
Частота кадров :25.000 fps
Глубина цвета :8 bits
Подвыборка цветности :4:2:0
Цветовое пространство :YUV
Тип развертки :Progressive
Бит/(Пиксели*Кадры) :0.421
Размер потока :1.35 GiB (95%)
Библиотека кодирования :XviD0047

Аудио #1
Идентификатор :1
Формат :MPEG Audio
Идентификатор кодека :55
Продолжительность :01:09:06.360
Вид битрейта :Constant
Битрейт :128 Kbps
Канал(ы) :2 channels
Частота :48.0 KHz
Метод сжатия :Lossy
Размер потока :63.3 MiB (4%)Тех. данные:
Качество:DVDRip
Продолжительность:01:09:00 час

Формат: AVI
Видео кодек: XviD
Аудио кодек: &nbs
62a5347aa22fd51c086e81ac19823e013069107fНепобедимый (Юрий Борецкий, боевик, 1983) [DVDRip, Не требуется] Непобедимый (Юрий Борецкий, боевик, 1983) [DVDRip, Не требуется] " />

Аплоадер: Админ, дата: 11-12-2012, 20:14, торрент скачан: 359 раз

Понравилась раздача? Посмотрите эти:
  • Белорусский вокзал (Андрей Смирнов, драма, 1971) [DVDRip, Не требуется]
  • 34-й скорый (Андрей Малюков, боевик, драма, 1981) [DVDRip, Не требуется]
  • Дон Сезар де Базан (2 части из 2) (Ян Фрид, мюзикл, комедия, 1989) [DVDRip, ...
  • Дама с собачкой (Иосиф Хейфиц, драма, мелодрама, 1959) [DVDRip, Не требуетс ...
  • Призрак (Никита Орлов, боевик, триллер, 1991) [TVRip, Не требуется]
  • Ох, уж эта Настя! (Юрий Победоносцев, семейный, 1972) [DVDRip, Не требуется ...
  • Перехват (Сергей Тарасов, боевик, 1986) [DVDRip, Не требуется]
  • Гиперболоид инженера Гарина (Александр Гинцбург, фантастика, 1965) [DVDRip, ...
  • Легенда о княгине Ольге (Юрий Ильенко, драма, история, 1983) [DVDRip, Не тр ...
  • Фантазеры (Исаак Магитон, И. Сафарова, детский, 1965) [DVDRip, Не требуется ...
  • Рысь выходит на тропу (Агаси Бабаян, комедия, 1983) [DVDRip, Не требуется]
  • Эскадрон гусар летучих (Никита Хубов, Станислав Ростоцкий, военный, 1980) [ ...
  • Чайка (Юлий Карасик, драма, 1972) [DVDRip, Не требуется]
  • Небывальщина (Сергей Овчаров, комедия, 1983) [DVDRip, Не требуется]
  • Бабушки надвое сказали (Валерий Харченко, Юрий Клебанов, комедия, 1979) [DV ...
  • Таинственный остров (Эдуард Пенцлин, фантастика, приключения, семейный, 194 ...
  • Чучело (2 части из 2) (Ролан Быков, Аркадий Хайт, драма, 1983) [DVDRip, Не ...
  • В лесах под Ковелем (3 части из 3) (Юрий Тупицкий, военный, история, 1984) ...
  • Непобедимый (Ю.Борецкий, боевик, 1983) [VHSRip]
  • Фонтан (Юрий Мамин, комедия, 1989) [DVDRip, Не требуется]
  • Голубая стрела (Леонид Эстрин, боевик, 1958) [DVDRip, Не требуется]
  • Зеленый фургон (Генрих Габай, боевик, приключения, 1959) [DVDRip, Не требуе ...
  • К Черному морю (Андрей Тутышкин, мелодрама, комедия, 1957) [DVDRip, Не треб ...
  • Карантин (Илья Фрэз, комедия, 1983) [DVDRip, Не требуется]
  • За облаками – небо (Юрий Егоров, драма, 1973) [DVDRip, Не требуется]
  • Информация
    Посетители, находящиеся в группе Гости, не могут оставлять комментарии к данной публикации.