вход на сайт

Имя пользователя :
Пароль :

Восстановление пароля Регистрация
Лес, в который ты никогда не войдешь (Борис Конунов, комедия, 1973) [TVRip, Не требуется]
Рейтинг:
(голосов: 1)



[img]{THEME}/images/logopost.png[/img]



Лес, в который ты никогда не войдешь

Год выпуска: 1973
Страна: СССР
Производство: Молдова Фильм
Жанр: комедия

Режиссёр: Борис Конунов
В ролях: Изабелла Чирина, Альгис Арлаускас, Виктор Жиганов, Юрий Каморный, Раиса Куркина, Светлана Орлова, Алексей Смирнов, Анна Кожевникова

Перевод: Не требуется
Субтитры: Отсутствуют

Описание:
Десятиклассники одной из городских школ приехали на двухнедельную практику в соседний леспромхоз. Вначале ребята чувствовали себя туристами. Но участие в посадке леса под руководством лесничего Юрия — настоящего энтузиаста своего дела, пробудило в них чувство любви к родной природе.


Дополнительно:
MediaInfo ▼Text
Общее
Полное имя :J:1. РАЗДАЧАЛес в который ты никогда не войдешьЛес, в который ты никогда не войдёшь.avi
Формат :AVI
Размер :562 MiB
Продолжительность :01:07:30.400
Общий поток :1 164 Kbps
Библиотека кодирования :MPlayer

Видео
Идентификатор :0
Формат :MPEG-4 Visual
Профиль формата :[email protected]
Параметр BVOP формата :No
Параметр Qpel формата :No
Параметр GMC формата :0
Параметр Matrix формата :Default (H.263)
Идентификатор кодека :DX50
Продолжительность :1h 7mn 30s 400ms
Битрейт :1 023 Kbps
Ширина :656 pixels
Высота :496 pixels
Соотношение сторон :1.323
Частота кадров :25.000 fps
Глубина цвета :8 bits
Подвыборка цветности :4:2:0
Цветовое пространство :YUV
Тип развертки :Interlaced
Бит/(Пиксели*Кадры) :0.126
Размер потока :494 MiB (88%)
Библиотека кодирования :Lavc52.0.0

Аудио #1
Идентификатор :1
Формат :MPEG Audio
Идентификатор кодека :55
Продолжительность :01:07:29.998
Вид битрейта :Constant
Битрейт :128 Kbps
Канал(ы) :2 channels
Частота :44.1 KHz
Метод сжатия :Lossy
Размер потока :61.8 MiB (11%)Тех. данные:
Качество:TVRip
Продолжительность:01:07:30 час

Формат: AVI
Видео кодек: Lavc
Аудио кодек: MPA1L3
Видео: 656 x 496 (4:3), 25.000 fps, 1 023 Kbps, 0.126 bit/pixel
Аудио : 44.1 KHz, , 2 channels (), 128 Kbps

3a5f284b7aeae8e23fb026fe05179cae6842c8c2Лес, в который ты никогда не войдешь (Борис Конунов, комедия, 1973) [TVRip, Не требуется] Лес, в который ты никогда не войдешь (Борис Конунов, комедия, 1973) [TVRip, Не требуется] " />

Аплоадер: Админ, дата: 11-12-2012, 20:06, торрент скачан: 359 раз

Понравилась раздача? Посмотрите эти:
  • Аленка (Борис Барнет, комедия, 1961) [DVDRip, Не требуется]
  • Открытая книга (Владимир Фетин, драма, биография, 1973) [DVDRip, Не требуе ...
  • Жди меня (Борис Иванов, Александр Столпер, драма, военный, 1972) [DVDRip, Н ...
  • Где это видано, где это слыхано (Валентин Горлов, короткометражка, комедия, ...
  • Гражданин Лёшка (Виктор Крючков, комедия, 1980) [DVDRip, Не требуется]
  • Чиполлино (Тамара Лисициан, семейный, 1973) [DVDRip, Не требуется]
  • Ход конем (Татьяна Лукашевич, комедия, 1962) [DVDRip, Не требуется]
  • Таинственная находка (Борис Бунеев, детский, приключения, 1954) [DVDRip, Не ...
  • Пакет (Владимир Назаров, комедия, приключения, семейный, 1965) [DVDRip, Не ...
  • Баламут (Владимир Роговой, драма, комедия, 1978) [DVDRip, Не требуется]
  • Иван да Марья (Борис Рыцарев, фэнтези, мелодрама, комедия, семейный, музыка ...
  • Неисправимый лгун (Виллен Азаров, комедия, 1973) [DVDRip, Не требуется]
  • Маленькое одолжение (Борис Конунов, мелодрама, музыка, 1984) [DVDRip, не тр ...
  • Солёный пёс (Николай Кошелев, драма, комедия, 1973) [DVDRip, Не требуется]
  • Подарок чёрного колдуна (Борис Рыцарев, фэнтези, приключения, семейный, 197 ...
  • Мы с Вулканом (Валентин Перов, детский, семейный, 1973) [TVRip, Не требуетс ...
  • Лето рядового Дедова (Георге Водэ, комедия, 1971) [TVRip, Не требуется]
  • Сотрудник ЧК (Борис Волчек, боевик, история, 1963) [DVDRip, Не требуется]
  • Славный малый (Борис Барнет, военный, 1943) [DVDRip, Не требуется]
  • Ученик лекаря (Борис Рыцарев, комедия, семейный, история, 1986) [DVDRip, Не ...
  • Полустанок (Борис Барнет, мелодрама, комедия, 1963) [DVDRip, Не требуется]
  • Близнецы (Константин Юдин, комедия, 1945) [TVRip, Перевод, Не требуется]
  • Как рождаются тосты (Всеволод Массино, Оскар Герц, Андрей Тутышкин, коротко ...
  • Целуются зори (Сергей Никоненко, комедия, 1978) [DVDRip, Не требуется]
  • За облаками – небо (Юрий Егоров, драма, 1973) [DVDRip, Не требуется]
  • Информация
    Посетители, находящиеся в группе Гости, не могут оставлять комментарии к данной публикации.