вход на сайт

Имя пользователя :
Пароль :

Восстановление пароля Регистрация
Карусель (Михаил Швейцер, комедия, 1970) [DVDRip, Не требуется]
Рейтинг:
(голосов: 1)



[img]{THEME}/images/logopost.png[/img]



Карусель

Год выпуска: 1970
Страна: СССР
Производство: Мосфильм
Жанр: комедия

Режиссёр: Михаил Швейцер
В ролях: Владимир Басов, Наталья Воробьева, Евгений Леонов, Иван Лапиков, Павел Павленко, Валентина Титова, Виктор Сергачев, Елена Королева, Леонид Куравлёв, Юрий Волынцев

Перевод: Не требуется
Субтитры: Отсутствуют

Описание:
Поручик занял у старого полковника денег в долг. А возвращать нечем. Может, молодая жена сможет помочь делу?.


Дополнительно:
MediaInfo ▼Text
Общее
Полное имя :J:1. РАЗДАЧАКарусельKarysel.1970.DVDRip.avi
Формат :AVI
Размер :1.37 GiB
Продолжительность :01:23:14.760
Общий поток :2 352 Kbps
Программа кодирования :VirtualDubMod 1.5.4.1 (build 2178/release)
Библиотека кодирования :VirtualDubMod build 2178/release

Видео
Идентификатор :0
Формат :MPEG-4 Visual
Параметр BVOP формата :1
Параметр Qpel формата :No
Параметр GMC формата :0
Параметр Matrix формата :Default (H.263)
Идентификатор кодека :DX50
Продолжительность :1h 23mn 14s 760ms
Битрейт :1 961 Kbps
Ширина :704 pixels
Высота :528 pixels
Соотношение сторон :1.333
Частота кадров :25.000 fps
Глубина цвета :8 bits
Подвыборка цветности :4:2:0
Цветовое пространство :YUV
Тип развертки :Progressive
Бит/(Пиксели*Кадры) :0.211
Размер потока :1.14 GiB (83%)
Библиотека кодирования :DivX503b2816p

Аудио #1
Идентификатор :1
Формат :AC-3
Формат/Информация :Audio Coding 3
Идентификатор кодека :2000
Продолжительность :01:23:14.432
Вид битрейта :Constant
Битрейт :384 Kbps
Канал(ы) :2 channels
Расположение каналов :Front: L R
Частота :48.0 KHz
Битовая глубина :16 bits
Метод сжатия :Lossy
Размер потока :229 MiB (16%)
Язык :RussianТех. данные:
Качество:DVDRip
Продолжительность:01:23:10 час

Формат: AVI
Видео кодек: DivX
Аудио к
6684b5fc503e5b4eb18ad19b58110b89385bef6aКарусель (Михаил Швейцер, комедия, 1970) [DVDRip, Не требуется] Карусель (Михаил Швейцер, комедия, 1970) [DVDRip, Не требуется] " />

Аплоадер: Админ, дата: 11-12-2012, 19:32, торрент скачан: 359 раз

Понравилась раздача? Посмотрите эти:
  • Вас вызывает Таймыр (Алексей Коренев, комедия, 1970) [DVDRip, Не требуется] ...
  • Начало (Глеб Панфилов, мелодрама, комедия, 1970) [DVDRip, Не требуется]
  • Меж высоких хлебов (Леонид Миллионщиков, комедия, 1970) [DVDRip, Не требует ...
  • Два дня чудес (Лев Мирский, комедия, 1970) [DVDRip, Не требуется]
  • Тайна железной двери (Михаил Юзовский, фантастика, приключения, семейный, 1 ...
  • Старшина (Николай Кошелев, драма, 1979) [DVDRip, Не требуется]
  • Путевка в Жизнь (Николай Экк, драма, 1931) [DVDRip, Не требуется]
  • Волшебная сила (Наум Бирман, мюзикл, комедия, семейный, 1970) [DVDRip, Не т ...
  • Опекун (Эдгар Ходжикян, Альберт С. Мкртчян, комедия, 1970) [DVDRip, Не треб ...
  • Левша (Сергей Овчаров, драма, комедия, 1986) [DVDRip, Не требуется]
  • Комедия ошибок (2 части из 2) (Вадим Гаузнер, комедия, 1978) [DVDRip, Не тр ...
  • Чудный характер (Константин Воинов, драма, 1970) [DVDRip, Не требуется]
  • Дача (Константин Воинов, комедия, 1974) [DVDRip, Не требуется]
  • Трест, который лопнул (3 части из 3) (Александр Павловский, мюзикл, комедия ...
  • Спортлото-82 (Леонид Гайдай, комедия, приключения, 1982) [DVDRip, Не требуе ...
  • Славный малый (Борис Барнет, военный, 1943) [DVDRip, Не требуется]
  • Приключения желтого чемоданчика (Илья Фрэз, комедия, семейный, 1970) [DVDRi ...
  • Хозяйка гостиницы (Михаил Названов, комедия, 1956) [DVDRip, Не требуется]
  • Комедия строгого режима (Михаил Григорьев, Владимир Студенников, Комедия, 1 ...
  • Мичман Панин (Михаил Швейцер, приключения, военный, история, 1960) [DVDRip, ...
  • Информация
    Посетители, находящиеся в группе Гости, не могут оставлять комментарии к данной публикации.