вход на сайт

Имя пользователя :
Пароль :

Восстановление пароля Регистрация
Как Иванушка-дурачок за чудом ходил (Надежда Кошеверова, фэнтези, семейный, 1977) [DVDRip, Не требуется]
Рейтинг:
(голосов: 1)



[img]{THEME}/images/logopost.png[/img]



Как Иванушка-дурачок за чудом ходил

Год выпуска: 1977
Страна: СССР
Производство: Ленфильм
Жанр: фэнтези, семейный

Режиссёр: Надежда Кошеверова
В ролях: Олег Даль, Елена Проклова, Михаил Глузский, Татьяна Пельтцер, Владимир Этуш, Андрей Попов, Александр Бениаминов, Мария Барабанова, Игорь Дмитриев, Михаил Боярский

Перевод: Не требуется
Субтитры: Отсутствуют

Описание:
Чтобы спасти свою любимую от злого недуга, Иванушка отправляется за тридевять земель, побеждает коварство богатого купца Марко, жульничество Феди-конокрада, недоверие волшебника Лукомора и завоевывает любовь Насти.


Дополнительно:
MediaInfo ▼Text
Общее
Полное имя :J:1. РАЗДАЧАКак Иванушка-дурачок за чудом ходилKak_Ivanuschka_durachok.DVDRip.avi
Формат :AVI
Размер :1.37 GiB
Продолжительность :01:25:01.600
Общий поток :2 301 Kbps
Программа кодирования :VirtualDubModRus 1.5.10.2 (build 2542/release)
Библиотека кодирования :VirtualDubMod build 2542/release

Видео
Идентификатор :0
Формат :MPEG-4 Visual
Параметр BVOP формата :Yes
Параметр Qpel формата :No
Параметр GMC формата :0
Параметр Matrix формата :Default (H.263)
Идентификатор кодека :DX50
Продолжительность :1h 25mn 1s 600ms
Битрейт :1 844 Kbps
Ширина :704 pixels
Высота :304 pixels
Соотношение сторон :2.316
Частота кадров :25.000 fps
Глубина цвета :8 bits
Подвыборка цветности :4:2:0
Цветовое пространство :YUV
Тип развертки :Progressive
Бит/(Пиксели*Кадры) :0.345
Размер потока :1.10 GiB (80%)
Библиотека кодирования :DivX503b2676p

Аудио #1
Идентификатор :1
Формат :AC-3
Формат/Информация :Audio Coding 3
Идентификатор кодека :2000
Продолжительность :01:25:01.440
Вид битрейта :Constant
Битрейт :448 Kbps
Канал(ы) :6 channels
Расположение каналов :Front: L C R, Side: L R, LFE
Частота :48.0 KHz
Битовая глубина :16 bits
Метод сжатия :Lossy
Размер потока :272 MiB (19%)Тех. данные:
Качество:&
6d94c9171eb648e0c21827c115b4e3d5c35f56beКак Иванушка-дурачок за чудом ходил (Надежда Кошеверова, фэнтези, семейный, 1977) [DVDRip, Не требуется] Как Иванушка-дурачок за чудом ходил (Надежда Кошеверова, фэнтези, семейный, 1977) [DVDRip, Не требуется] " />

Аплоадер: Админ, дата: 11-12-2012, 19:29, торрент скачан: 359 раз

Понравилась раздача? Посмотрите эти:
  • Медовый месяц (Надежда Кошеверова, мелодрама, комедия, 1956) [DVDRip, Не тр ...
  • Двенадцать месяцев (2 части из 2) (Анатолий Граник, фэнтези, семейный, 1972 ...
  • И вот пришел Бумбо... (Надежда Кошеверова, В. Апананский, Н. Окунцова, семе ...
  • Ослиная шкура (Надежда Кошеверова, фэнтези, мелодрама, комедия, семейный, 1 ...
  • Мама (Элизабета Бостан, мюзикл, фэнтези, семейный, 1976) [DVDRip, Не требуе ...
  • Царевич Проша (Надежда Кошеверова, фэнтези, семейный, 1947) [DVDRip, Не тре ...
  • Мульт-Салют. 14 ч. из 30: Аленький цветочек/Сестрица Аленушка и братец Иван ...
  • Тень (Реставрация) (Надежда Кошеверова, фэнтези, драма, мелодрама, комедия, ...
  • По щучьему веленью // Конек-Горбунок (Александр Роу, фэнтези, семейный, 193 ...
  • Сегодня – новый аттракцион (Надежда Кошеверова, Аполлинарий Дудко, комедия, ...
  • Старая, старая сказка (Надежда Кошеверова, фэнтези, семейный, 1968) [DVDRip ...
  • Соловей (Надежда Кошеверова, мюзикл, семейный, 1979) [DVDRip, Не требуется] ...
  • Пока бьют часы (Геннадий Васильев, фэнтези, семейный, 1976) [DVDRip, Не тре ...
  • Как Иванушка-дурачок за чудом ходил(Надежда Кошеверова, детский, сказка, 19 ...
  • Ослиная шкура (Надежда Кошеверова, сказка, 1982) [DVDrip, перевод не требуе ...
  • Как Иван-Царевич жениться ходил, дурачок... (Галина Баринова, Мультфильм , ...
  • Драгоценный подарок (Александр Роу, семейный, 1956) [DVDRip, Не требуется]
  • Шофер поневоле (Надежда Кошеверова, комедия, 1958) [DVDRip, Не требуется]
  • Вера, надежда, любовь (Владимир Грамматиков, приключения, 1984) [DVDRip, Не ...
  • Каин XVIII (Надежда Кошеверова, Михаил Шапиро, фэнтези, мелодрама, приключе ...
  • Информация
    Посетители, находящиеся в группе Гости, не могут оставлять комментарии к данной публикации.