вход на сайт

Имя пользователя :
Пароль :

Восстановление пароля Регистрация
Всё дело в брате (Валентин Горлов, семейный, 1976) [TVRip, Не требуется]
Рейтинг:
(голосов: 1)



[img]{THEME}/images/logopost.png[/img]



Всё дело в брате

Год выпуска: 1976
Страна: СССР
Производство: Студия Горького
Жанр: семейный

Режиссёр: Валентин Горлов
В ролях: Юрий Дуванов, Наталья Сеземан, Марина Горлова, Элеонора Шашкова, Елизавета Никищихина, Вадим Мадянов, Роман Мадянов, Владимир Грамматиков, Николай Горлов, Константин Бутаев

Перевод: Не требуется
Субтитры: Отсутствуют

Описание:
В одной семье растут два совершенно разных сына. Младший, Фрол Калиткин, примерный восьмиклассник, победитель олимпиад, первый ученик. А старший, Андрюша, — лоботряс, бездельник и пижон. За воспитание брата берется «правильный» Фрол.


Дополнительно:
MediaInfo ▼Text
Общее
Полное имя :D:. РАЗДАЧАВсё дело в братеVse.delo.v.brate.(1976).TVRip.avi
Формат :AVI
Размер :1.09 GiB
Продолжительность :01:11:23.040
Общий поток :2 193 Kbps
Программа кодирования :VirtualDubMod 1.5.10.2 (build 2540/release)

Видео
Идентификатор :0
Формат :MPEG-4 Visual
Параметр BVOP формата :No
Параметр Qpel формата :No
Параметр GMC формата :0
Параметр Matrix формата :Default (H.263)
Идентификатор кодека :DX50
Продолжительность :1h 11mn 23s 40ms
Битрейт :1 992 Kbps
Ширина :688 pixels
Высота :528 pixels
Соотношение сторон :1.303
Частота кадров :25.000 fps
Глубина цвета :8 bits
Подвыборка цветности :4:2:0
Цветовое пространство :YUV
Тип развертки :Progressive
Бит/(Пиксели*Кадры) :0.219
Размер потока :1 017 MiB (91%)
Библиотека кодирования :DivX503b1328

Аудио #1
Идентификатор :1
Формат :AC-3
Формат/Информация :Audio Coding 3
Идентификатор кодека :2000
Продолжительность :01:11:22.752
Вид битрейта :Constant
Битрейт :192 Kbps
Канал(ы) :2 channels
Расположение каналов :Front: L R
Частота :48.0 KHz
Битовая глубина :16 bits
Метод сжатия :Lossy
Размер потока :98.0 MiB (9%)Тех. данные:
Качество:TVRip
Продолжительность:01:11:20 час

Формат: AVI
Видео кодек: DivX
Аудио кодек:  
4499615e6ef0eb6494283a04048792205d3a3f49Всё дело в брате (Валентин Горлов, семейный, 1976) [TVRip, Не требуется] Всё дело в брате (Валентин Горлов, семейный, 1976) [TVRip, Не требуется] " />

Аплоадер: Админ, дата: 11-12-2012, 18:52, торрент скачан: 359 раз

Понравилась раздача? Посмотрите эти:
  • Подранки (Николай Губенко, драма, 1976) [DVDRip, Не требуется]
  • Дневной поезд (Инесса Селезнева, драма, 1976) [DVDRip, Не требуется]
  • Где это видано, где это слыхано (Валентин Горлов, короткометражка, комедия, ...
  • Убийство на улице Данте (Михаил Ромм, драма, 1956) [DVDRip, Не требуется]
  • Тимур и его команда (2 части из 2) (Александр Бланк, Сергей Линков, приключ ...
  • Призрак (Никита Орлов, боевик, триллер, 1991) [TVRip, Не требуется]
  • Ох, уж эта Настя! (Юрий Победоносцев, семейный, 1972) [DVDRip, Не требуется ...
  • Деревня Утка (Борис Бунеев, семейный, 1976) [DVDRip, Не требуется]
  • Иван да Марья (Борис Рыцарев, фэнтези, мелодрама, комедия, семейный, музыка ...
  • Мама (Элизабета Бостан, мюзикл, фэнтези, семейный, 1976) [DVDRip, Не требуе ...
  • Пустыня (Михаил Кац, драма, 1991) [TVRip, Не требуется]
  • Игра на миллионы (Геннадий Байсак, комедия, криминал, приключения, 1991) [T ...
  • Мы с Вулканом (Валентин Перов, детский, семейный, 1973) [TVRip, Не требуетс ...
  • Термометр (Рамаз Шарабидзе, короткометражка, 1976) [TVRip, Профессиональный ...
  • Три рубля / Sami maneti (Рамаз Шарабидзе, короткометражка, комедия, 1976) [ ...
  • У меня есть лев (2 части из 2) (Константин Бромберг, драма, комедия, приклю ...
  • Проделки в старинном духе (Александр Панкратов, комедия, 1986) [DVDRip, Не ...
  • Солдатки (Валентин Козачков, драма, 1977) [DVDRip, Не требуется]
  • Степанова памятка (Константин Ершов, фэнтези, 1976) [DVDRip, Не требуется]
  • Русалочка (Владимир Бычков, мюзикл, фэнтези, мелодрама, семейный, 1976) [DV ...
  • Приключения маленького Мука (Елизавета Кимягарова, мюзикл, семейный, 1983) ...
  • Пока бьют часы (Геннадий Васильев, фэнтези, семейный, 1976) [DVDRip, Не тре ...
  • Близнецы (Константин Юдин, комедия, 1945) [TVRip, Перевод, Не требуется]
  • Драгоценный подарок (Александр Роу, семейный, 1956) [DVDRip, Не требуется]
  • Золотая речка (Вениамин Дорман, приключения, 1977) [DVDRip, Не требуется]
  • Информация
    Посетители, находящиеся в группе Гости, не могут оставлять комментарии к данной публикации.